[4K电影] DC萌宠特遣队 / DC League of Super-Pets (2022) 4K高清版本下载

[复制链接]

2327

主题

2476

帖子

1万

积分

超级版主

Rank: 8Rank: 8

积分
17940
 楼主| 发表于 2022-8-23 19:11:54 | 显示全部楼层 |阅读模式

QQ图片20220823190929_副本.png

◎标  题 DC萌宠特遣队
◎译  名 DC超级宠物联盟 / DC超级宠物军团(台) / DC超宠联萌(港) / DC超级宠物战队 / 超级宠物 / DC Super Pets / Super Pets
◎片  名 DC League of Super-Pets
◎年  代 2022
◎产  地 美国
◎类  别 喜剧 / 动作 / 科幻 / 动画 / 冒险
◎语  言 英语
◎上映日期 2022-07-29(美国)
◎IMDb评分 7.9/10 from 34533 users 更新 : 2022-08-23
◎IMDb链接 https://www.imdb.com/title/tt8912936/
◎豆瓣评分 7.3/10 from 517 users 更新 : 2022-08-23
◎豆瓣链接 https://movie.douban.com/subject/30290068/
◎导  演 贾里德·斯特恩 Jared Stern /  山姆·J·莱文 Sam J. Levine
◎编  剧 贾里德·斯特恩 Jared Stern / 约翰·惠廷顿 John Whittington
◎演  员 道恩·强森 Dwayne Johnson
       凯文·哈特 Kevin Hart
       凯特·麦克金农 Kate McKinnon
       约翰·卡拉辛斯基 John Krasinski
       瓦妮莎·贝尔 Vanessa Bayer
       娜塔莎·雷昂 Natasha Lyonne
       迭戈·卢纳 Diego Luna
       马克·马龙 Marc Maron
       基努·里维斯 Keanu Reeves
       托马斯·米德蒂奇 Thomas Middleditch
       本·施瓦茨 Ben Schwartz
       奥利维亚·王尔德 Olivia Wilde
       玛雅·厄斯金 Maya Erskine
       伊薇特·尼科尔·布朗 Yvette Nicole Brown
       贾米拉·贾米尔 Jameela Jamil
       杰梅奈·克莱门特 Jemaine Clement
       约翰·厄尔利 John Early
       达丝莎·坡兰科 Dascha Polanco
       戴维德·迪格斯 Daveed Diggs
       阿尔弗雷德·莫里纳 Alfred Molina
       琳娜·海蒂 Lena Headey
       凯斯·大卫 Keith David
       贝茜·菲利普斯 Busy Philipps
       丹·福勒 Dan Fogler
       大卫·普雷斯曼 David Pressman
       山姆·J·莱文 Sam J. Levine
       贾里德·斯特恩 Jared Stern
       凯文·康瑞 Kevin Conroy


◎简  介


  超狗小氪和超人是形影不离的好朋友。他们共享超能力,在大都会并肩作战打击犯罪。但是当超人和正义联盟的其他成员被绑架时,小氪必须要说服一群收容所里的小动物们,包括猎犬王牌、小胖猪PB、乌龟默顿、松鼠奇奇组成萌宠特遣队,帮助他们掌握刚获得的超能力,一起拯救超级英雄。

Video
ID : 1
Format : HEVC
Format/Info : High Efficiency Video Coding
Format profile : Main 10@L5@High
HDR format : Dolby Vision, Version 1.0, dvhe.05.06, BL+RPU
Codec ID : dvhe
Codec ID/Info : High Efficiency Video Coding with Dolby Vision
Duration : 1 h 45 min
Bit rate : 24.8 Mb/s
Width : 3 840 pixels
Height : 2 160 pixels
Display aspect ratio : 16:9
Frame rate mode : Constant
Frame rate : 23.976 (24000/1001) FPS
Color space : YUV
Chroma subsampling : 4:2:0 (Type 0)
Bit depth : 10 bits
Bits/(Pixel*Frame) : 0.125
Stream size : 18.3 GiB (97%)
Default : Yes
Alternate group : 1
Encoded date : UTC 2022-08-23 07:08:55
Tagged date : UTC 2022-08-23 07:12:25
Color range : Full
Codec configuration box : hvcC+dvcC

Audio
ID : 2
Format : E-AC-3 JOC
Format/Info : Enhanced AC-3 with Joint Object Coding
Commercial name : Dolby Digital Plus with Dolby Atmos
Codec ID : ec-3
Duration : 1 h 45 min
Bit rate mode : Constant
Bit rate : 768 kb/s
Maximum bit rate : 811 kb/s
Channel(s) : 6 channels
Channel layout : L R C LFE Ls Rs
Sampling rate : 48.0 kHz
Frame rate : 31.250 FPS (1536 SPF)
Compression mode : Lossy
Stream size : 579 MiB (3%)
Title : English
Language : English
Service kind : Complete Main
Default : Yes
Alternate group : 1
Tagged date : UTC 2022-08-23 07:12:25
Complexity index : Not present / 16
Number of dynamic objects : 15
Bed channel count : 1 channel
Bed channel configuration : LFE

Text #1
ID : 3
Format : Timed Text
Codec ID : tx3g
Duration : 1 h 45 min
Bit rate mode : Variable
Bit rate : 74 b/s
Frame rate : 0.517 FPS
Stream size : 57.3 KiB (0%)
Title : English
Language : English
Forced : No
Encoded date : UTC 2022-08-23 07:12:24
Tagged date : UTC 2022-08-23 07:12:25

Text #2
ID : 4
Format : Timed Text
Codec ID : tx3g
Duration : 1 h 45 min
Bit rate mode : Variable
Bit rate : 88 b/s
Frame rate : 0.683 FPS
Stream size : 67.7 KiB (0%)
Title : English
Language : English
Forced : No
Encoded date : UTC 2022-08-23 07:12:24
Tagged date : UTC 2022-08-23 07:12:25

Text #3
ID : 5
Format : Timed Text
Codec ID : tx3g
Duration : 50 min 50 s
Duration_FirstFrame : 50 min 45 s
Bit rate mode : Variable
Bit rate : 0 b/s
Frame rate : 0.001 FPS
Stream size : 34.0 Bytes (0%)
Title : English
Language : English
Forced : No
Encoded date : UTC 2022-08-23 07:12:24
Tagged date : UTC 2022-08-23 07:12:25

Text #4
ID : 6
Format : Timed Text
Codec ID : tx3g
Duration : 1 h 45 min
Bit rate mode : Variable
Bit rate : 69 b/s
Frame rate : 0.477 FPS
Stream size : 53.3 KiB (0%)
Title : Czech
Language : Czech
Forced : No
Encoded date : UTC 2022-08-23 07:12:24
Tagged date : UTC 2022-08-23 07:12:25

Text #5
ID : 7
Format : Timed Text
Codec ID : tx3g
Duration : 1 h 45 min
Bit rate mode : Variable
Bit rate : 57 b/s
Frame rate : 0.316 FPS
Stream size : 43.7 KiB (0%)
Title : Dutch
Language : Dutch
Forced : No
Encoded date : UTC 2022-08-23 07:12:24
Tagged date : UTC 2022-08-23 07:12:25

Text #6
ID : 8
Format : Timed Text
Codec ID : tx3g
Duration : 1 h 45 min
Bit rate mode : Variable
Bit rate : 63 b/s
Frame rate : 0.476 FPS
Stream size : 48.8 KiB (0%)
Title : Finnish
Language : Finnish
Forced : No
Encoded date : UTC 2022-08-23 07:12:25
Tagged date : UTC 2022-08-23 07:12:25

Text #7
ID : 9
Format : Timed Text
Codec ID : tx3g
Duration : 1 h 45 min
Bit rate mode : Variable
Bit rate : 58 b/s
Frame rate : 0.457 FPS
Stream size : 45.1 KiB (0%)
Title : French
Language : French
Forced : No
Encoded date : UTC 2022-08-23 07:12:25
Tagged date : UTC 2022-08-23 07:12:25

Text #8
ID : 10
Format : Timed Text
Codec ID : tx3g
Duration : 1 h 45 min
Bit rate mode : Variable
Bit rate : 80 b/s
Frame rate : 0.494 FPS
Stream size : 61.6 KiB (0%)
Title : German
Language : German
Forced : No
Encoded date : UTC 2022-08-23 07:12:25
Tagged date : UTC 2022-08-23 07:12:25

Text #9
ID : 11
Format : Timed Text
Codec ID : tx3g
Duration : 1 h 45 min
Bit rate mode : Variable
Bit rate : 61 b/s
Frame rate : 0.349 FPS
Stream size : 46.7 KiB (0%)
Title : Norwegian
Language : Norwegian
Forced : No
Encoded date : UTC 2022-08-23 07:12:25
Tagged date : UTC 2022-08-23 07:12:25

Text #10
ID : 12
Format : Timed Text
Codec ID : tx3g
Duration : 1 h 45 min
Bit rate mode : Variable
Bit rate : 70 b/s
Frame rate : 0.477 FPS
Stream size : 53.8 KiB (0%)
Title : Romanian
Language : Romanian
Forced : No
Encoded date : UTC 2022-08-23 07:12:25
Tagged date : UTC 2022-08-23 07:12:25

Text #11
ID : 13
Format : Timed Text
Codec ID : tx3g
Duration : 1 h 45 min
Bit rate mode : Variable
Bit rate : 69 b/s
Frame rate : 0.476 FPS
Stream size : 53.5 KiB (0%)
Title : Slovak
Language : Slovak
Forced : No
Encoded date : UTC 2022-08-23 07:12:25
Tagged date : UTC 2022-08-23 07:12:25

Text #12
ID : 14
Format : Timed Text
Codec ID : tx3g
Duration : 1 h 45 min
Bit rate mode : Variable
Bit rate : 69 b/s
Frame rate : 0.471 FPS
Stream size : 53.6 KiB (0%)
Title : Spanish
Language : Spanish
Forced : No
Encoded date : UTC 2022-08-23 07:12:25
Tagged date : UTC 2022-08-23 07:12:25

Text #13
ID : 15
Format : Timed Text
Codec ID : tx3g
Duration : 1 h 45 min
Bit rate mode : Variable
Bit rate : 56 b/s
Frame rate : 0.307 FPS
Stream size : 43.3 KiB (0%)
Title : Swedish
Language : Swedish
Forced : No
Encoded date : UTC 2022-08-23 07:12:25
Tagged date : UTC 2022-08-23 07:12:25


资源速度为零或资源敏感被和谐时,推荐使用qBittorrent等下载软件,有条件的推荐115更好的下载软件!

下载地址:


游客,如果您要查看本帖隐藏内容请回复

游客,如果您要查看本帖隐藏内容请回复

游客,如果您要查看本帖隐藏内容请回复

游客,如果您要查看本帖隐藏内容请回复

游客,如果您要查看本帖隐藏内容请回复





上一篇:魔力女战士 [简繁粤中字] / Aeon.Flux (2005) 4K高清版本下载
下一篇:复活节 / Easter Sunday (2022) 4K高清版本下载
回复

使用道具 举报

48

主题

1516

帖子

4366

积分

4K家园VIP

Rank: 9Rank: 9Rank: 9

积分
4366
发表于 2022-8-23 19:12:01 | 显示全部楼层
差评
回复 支持 反对

使用道具 举报

0

主题

8663

帖子

2万

积分

4K家园VIP

Rank: 9Rank: 9Rank: 9

积分
20189
发表于 2022-8-23 19:40:25 | 显示全部楼层
太好啦&萬分感謝版主的無私發佈分享%
回复 支持 反对

使用道具 举报

0

主题

2

帖子

516

积分

新手上路

Rank: 1

积分
516
发表于 2022-8-23 22:48:10 | 显示全部楼层
不错
回复

使用道具 举报

1

主题

1522

帖子

4416

积分

4K家园VIP

Rank: 9Rank: 9Rank: 9

积分
4416
发表于 2022-8-24 01:05:41 | 显示全部楼层
前排支持下
回复 支持 反对

使用道具 举报

3

主题

1331

帖子

3799

积分

4K家园VIP

Rank: 9Rank: 9Rank: 9

积分
3799
发表于 2022-8-24 06:55:03 | 显示全部楼层
都不知道说的啥
回复 支持 反对

使用道具 举报

2

主题

1430

帖子

4312

积分

4K家园VIP

Rank: 9Rank: 9Rank: 9

积分
4312
发表于 2022-8-24 15:44:57 | 显示全部楼层
好,很好,非常好!
回复 支持 反对

使用道具 举报

0

主题

1706

帖子

4670

积分

4K家园VIP

Rank: 9Rank: 9Rank: 9

积分
4670
发表于 2022-8-24 17:40:35 | 显示全部楼层
LZ敢整点更有创意的不?兄弟们等着围观捏~
回复 支持 反对

使用道具 举报

0

主题

1

帖子

6

积分

新手上路

Rank: 1

积分
6
发表于 2022-8-24 22:15:28 | 显示全部楼层
一级棒~!!!!!!!!
回复

使用道具 举报

0

主题

23

帖子

183

积分

新手上路

Rank: 1

积分
183
发表于 2022-8-28 20:17:09 | 显示全部楼层
123123
回复

使用道具 举报

您需要登录后才可以回帖 登录 | 立即注册

本版积分规则

精彩图文
Archiver|手机版|TAG|Sitemap|新帖|专题|联系我们:邮箱: 4kjia.com@gmail.com   

4k家园   ©2019