[4K美女视频] 2019全国总统盃健美比赛高中高职女子比基尼走秀[2160/MP4/395MB]

[复制链接]

1220

主题

1366

帖子

9327

积分

超级版主

Rank: 8Rank: 8

积分
9327
 楼主| 发表于 2019-6-30 09:20:29 | 显示全部楼层 |阅读模式

2019全国总统盃健美比赛 高中高职女子比基尼 泳装走秀.mp4_20190627_212336.336.jpg.jpg 2019全国总统盃健美比赛 高中高职女子比基尼 泳装走秀.mp4_20190627_212426.665.jpg.jpg 2019全国总统盃健美比赛 高中高职女子比基尼 泳装走秀.mp4_20190627_212433.601.jpg.jpg 2019全国总统盃健美比赛 高中高职女子比基尼 泳装走秀.mp4_20190627_212543.130.jpg.jpg

General
Complete name                  : 4K视频\2019全国总统盃健美比赛 高中高职女子比基尼 泳装走秀.mp4
Format                         : MPEG-4
Format profile                 : Base Media
Codec ID                       : isom (isom/iso2/avc1/mp41)
File size                      : 396 MiB
Duration                       : 3 min 27 s
Overall bit rate               : 16.0 Mb/s
Writing application            : Lavf58.12.100

Video
ID                             : 1
Format                         : AVC
Format/Info                    : Advanced Video Codec
Format profile                 : High@L5.1
Format settings                : CABAC / 4 Ref Frames
Format settings, CABAC         : Yes
Format settings, Reference fra : 4 frames
Codec ID                       : avc1
Codec ID/Info                  : Advanced Video Coding
Duration                       : 3 min 27 s
Bit rate                       : 16.0 Mb/s
Width                          : 3 836 pixels
Height                         : 1 888 pixels
Display aspect ratio           : 2.032
Frame rate mode                : Constant
Frame rate                     : 29.000 FPS
Color space                    : YUV
Chroma subsampling             : 4:2:0
Bit depth                      : 8 bits
Scan type                      : Progressive
Bits/(Pixel*Frame)             : 0.076
Stream size                    : 392 MiB (99%)
Writing library                : x264 core 148
Encoding settings              : cabac=1 / ref=3 / deblock=1:0:0 / analyse=0x3:0x113 / me=hex / subme=7 / psy=1 / psy_rd=1.00:0.00 / mixed_ref=1 / me_range=16 / chroma_me=1 / trellis=1 / 8x8dct=1 / cqm=0 / deadzone=21,11 / fast_pskip=1 / chroma_qp_offset=-2 / threads=6 / lookahead_threads=1 / sliced_threads=0 / nr=0 / decimate=1 / interlaced=0 / bluray_compat=0 / constrained_intra=0 / bframes=3 / b_pyramid=2 / b_adapt=1 / b_bias=0 / direct=1 / weightb=1 / open_gop=0 / weightp=2 / keyint=250 / keyint_min=25 / scenecut=40 / intra_refresh=0 / rc_lookahead=40 / rc=abr / mbtree=1 / bitrate=16000 / ratetol=1.0 / qcomp=0.60 / qpmin=0 / qpmax=69 / qpstep=4 / ip_ratio=1.40 / aq=1:1.00
Language                       : English
Codec configuration box        : avcC

Audio
ID                             : 2
Format                         : AAC LC
Format/Info                    : Advanced Audio Codec Low Complexity
Codec ID                       : mp4a-40-2
Duration                       : 3 min 27 s
Duration_LastFrame             : -6 ms
Bit rate mode                  : Constant
Bit rate                       : 129 kb/s
Channel(s)                     : 2 channels
Channel layout                 : L R
Sampling rate                  : 44.1 kHz
Frame rate                     : 43.066 FPS (1024 SPF)
Compression mode               : Lossy
Stream size                    : 3.18 MiB (1%)
Language                       : English
Default                        : Yes
Alternate group                : 1


网盘下载失效不补:链接: https://pan.baidu.com/s/1GsfQLJYvIJrWgMeixCcPmA
****此区域为收费内容****    需支付 15 金币后可查看立即购买


1.gif

上一篇:2018比基尼shower全员拍照留念 [2160/MP4/234MB]
下一篇:2019 韩国模特系列-2 [2160/MP4/126MB]
回复

使用道具 举报

0

主题

1209

帖子

3227

积分

4K家园VIP

Rank: 9Rank: 9Rank: 9

积分
3227
发表于 2019-6-30 09:20:34 | 显示全部楼层
鄙视楼下的顶帖没我快,哈哈
回复 支持 反对

使用道具 举报

0

主题

10

帖子

52

积分

新手上路

Rank: 1

积分
52
发表于 2019-6-30 10:01:52 | 显示全部楼层

论坛不能没有像楼主这样的人才啊!我会一直支持楼主支持4K家园。
回复 支持 反对

使用道具 举报

48

主题

1151

帖子

3259

积分

4K家园VIP

Rank: 9Rank: 9Rank: 9

积分
3259
发表于 2019-6-30 11:03:23 | 显示全部楼层
路过的帮顶
回复 支持 反对

使用道具 举报

0

主题

61

帖子

862

积分

4K家园VIP

Rank: 9Rank: 9Rank: 9

积分
862
发表于 2019-6-30 11:52:33 | 显示全部楼层
谢谢楼主提供哈。
回复 支持 反对

使用道具 举报

0

主题

12

帖子

3431

积分

中级会员

Rank: 4

积分
3431
发表于 2019-6-30 13:34:18 | 显示全部楼层
楼主发贴辛苦了,谢谢楼主分享!我觉得来4K家园是注册对了!
回复 支持 反对

使用道具 举报

1

主题

449

帖子

3566

积分

4K家园VIP

Rank: 9Rank: 9Rank: 9

积分
3566
QQ
发表于 2019-6-30 14:24:32 | 显示全部楼层
谢谢老大了!!
回复 支持 反对

使用道具 举报

39

主题

1140

帖子

3212

积分

4K家园VIP

Rank: 9Rank: 9Rank: 9

积分
3212
发表于 2019-6-30 19:31:35 | 显示全部楼层
多发些资源啊
回复 支持 反对

使用道具 举报

0

主题

694

帖子

3794

积分

中级会员

Rank: 4

积分
3794
发表于 2019-6-30 22:12:23 | 显示全部楼层

谢谢楼主提供哈。
回复 支持 反对

使用道具 举报

40

主题

1150

帖子

3246

积分

4K家园VIP

Rank: 9Rank: 9Rank: 9

积分
3246
发表于 2019-6-30 23:57:44 来自手机 | 显示全部楼层
楼主这资源不错,我收藏了
回复 支持 反对

使用道具 举报

您需要登录后才可以回帖 登录 | 立即注册

本版积分规则

精彩图文
关闭

站长推荐上一条 /1 下一条

Archiver|手机版|TAG|Sitemap|新帖|专题|联系我们:邮箱: 4kjia.com@gmail.com   

4k家园   ©2019