[4K电影] 不 / Nope (2022) 4K高清版本下载

[复制链接]

2327

主题

2476

帖子

1万

积分

超级版主

Rank: 8Rank: 8

积分
17940
 楼主| 发表于 2022-8-25 14:08:31 | 显示全部楼层 |阅读模式
QQ图片20220825135211_副本.png

◎标  题 不 / 不!(台) / 虚无(港) / 不要 / 覅
◎片  名 Nope
◎年  代 2022
◎产  地 美国
◎类  别 科幻 / 悬疑 / 惊悚 / 恐怖
◎语  言 英语
◎上映日期 2022-07-22(美国)
◎IMDb评分 7.3/10 from 50273 users 更新: 2022-08-25
◎IMDb链接 https://www.imdb.com/title/tt10954984/
◎豆瓣评分 7.4/10 from 2596 users 更新: 2022-08-25
◎豆瓣链接 https://movie.douban.com/subject/35240235/
◎片  长 130分钟
◎导  演 乔丹·皮尔 Jordan Peele
◎编  剧 乔丹·皮尔 Jordan Peele
◎演  员 丹尼尔·卡卢亚 Daniel Kaluuya
                   柯柯·帕尔莫 Keke Palmer
                   布兰登·佩利亚 Brandon Perea
                   迈克尔·维克特 Michael Wincott
                   史蒂文·延 Steven Yeun
                   瑞安·施密特 Wrenn Schmidt
                   凯斯·大卫 Keith David
                   德文·格拉耶 Devon Graye
                   泰瑞·诺塔里 Terry Notary
                   芭比·费雷拉 Barbie Ferreira
                   唐娜·米尔斯 Donna Mills
                   奥兹·珀金斯 Oz Perkins
                   埃迪·杰米森 Eddie Jemison
                   雅各布·金 Jacob Kim
                   索菲娅·柯多 Sophia Coto
                   珍妮弗·拉弗勒 Jennifer Lafleur
                   安德鲁·帕特里克·拉斯顿 Andrew Patrick Ralston
                   阿莱克斯·海德-怀特 Alex Hyde-White
                   阿曼达·琼斯 Amanda Jones
                   埃文·沙夫兰 Evan Shafran


◎简  介


         本片由史蒂文·元、丹尼尔·卡卢亚和柯柯·帕尔莫主演,他们饰演位于加州内陆一座荒凉小镇的居民,目击了一场令人不安及不寒而栗的诡异发现
Video
ID : 1
Format : HEVC
Format/Info : High Efficiency Video Coding
Format profile : Main 10@L5@High
Codec ID : V_MPEGH/ISO/HEVC
Duration : 2 h 10 min
Bit rate : 20.7 Mb/s
Width : 3 840 pixels
Height : 1 740 pixels
Display aspect ratio : 2.2:1
Frame rate mode : Constant
Frame rate : 23.976 FPS
Color space : YUV
Chroma subsampling : 4:2:0
Bit depth : 10 bits
Bits/(Pixel*Frame) : 0.129
Stream size : 18.9 GiB (96%)
Language : English
Default : Yes
Forced : No
Color range : Limited
Color primaries : BT.709
Transfer characteristics : BT.709
Matrix coefficients : BT.709

Audio
ID : 2
Format : E-AC-3 JOC
Format/Info : Enhanced AC-3 with Joint Object Coding
Commercial name : Dolby Digital Plus with Dolby Atmos
Codec ID : A_EAC3
Duration : 2 h 10 min
Bit rate mode : Constant
Bit rate : 768 kb/s
Channel(s) : 6 channels
Channel layout : L R C LFE Ls Rs
Sampling rate : 48.0 kHz
Frame rate : 31.250 FPS (1536 SPF)
Compression mode : Lossy
Stream size : 717 MiB (4%)
Language : English
Service kind : Complete Main
Default : Yes
Forced : No
Complexity index : 16
Number of dynamic objects : 15
Bed channel count : 1 channel
Bed channel configuration : LFE

Text #1
ID : 3
Format : UTF-8
Codec ID : S_TEXT/UTF8
Codec ID/Info : UTF-8 Plain Text
Duration : 2 h 10 min
Bit rate : 61 b/s
Frame rate : 0.280 FPS
Count of elements : 2188
Stream size : 58.8 KiB (0%)
Title : SDH
Language : English
Default : No
Forced : No

Text #2
ID : 4
Format : UTF-8
Codec ID : S_TEXT/UTF8
Codec ID/Info : UTF-8 Plain Text
Duration : 2 h 9 min
Bit rate : 46 b/s
Frame rate : 0.214 FPS
Count of elements : 1662
Stream size : 43.8 KiB (0%)
Language : English
Default : No
Forced : No

Text #3
ID : 5
Format : UTF-8
Codec ID : S_TEXT/UTF8
Codec ID/Info : UTF-8 Plain Text
Duration : 2 h 10 min
Bit rate : 38 b/s
Frame rate : 0.178 FPS
Count of elements : 1388
Stream size : 37.1 KiB (0%)
Title : Latin American
Language : Spanish
Default : No
Forced : No

Menu
00:00:00.000 : Chapter 01
00:08:10.490 : Chapter 02
00:16:51.344 : Chapter 03
00:25:32.949 : Chapter 04
00:33:42.939 : Chapter 05
00:40:01.276 : Chapter 06
00:48:41.171 : Chapter 07
00:57:38.291 : Chapter 08
01:04:25.115 : Chapter 09
01:12:37.023 : Chapter 10
01:20:25.492 : Chapter 11
01:29:20.777 : Chapter 12
01:36:03.972 : Chapter 13
01:45:07.432 : Chapter 14
01:53:34.689 : Chapter 15
02:01:52.687 : Chapter 16

下载地址:

游客,如果您要查看本帖隐藏内容请回复

游客,如果您要查看本帖隐藏内容请回复

游客,如果您要查看本帖隐藏内容请回复

游客,如果您要查看本帖隐藏内容请回复

游客,如果您要查看本帖隐藏内容请回复

游客,如果您要查看本帖隐藏内容请回复





上一篇:圣诞夜惊魂 / The Nightmare Before Christmas (1993)4K高清版本下载
下一篇:撒玛利亚 [简繁中字] / Samaritan (2022) 4K高清版本下载
回复

使用道具 举报

1

主题

1394

帖子

4024

积分

4K家园VIP

Rank: 9Rank: 9Rank: 9

积分
4024
发表于 2022-8-25 14:08:35 | 显示全部楼层
啊啊啊啊啊啊啊啊啊啊啊
回复 支持 反对

使用道具 举报

0

主题

1319

帖子

3973

积分

4K家园VIP

Rank: 9Rank: 9Rank: 9

积分
3973
发表于 2022-8-25 15:50:57 | 显示全部楼层
我只是看看啊,不说话
回复 支持 反对

使用道具 举报

0

主题

8663

帖子

2万

积分

4K家园VIP

Rank: 9Rank: 9Rank: 9

积分
20189
发表于 2022-8-25 15:58:40 | 显示全部楼层
太好啦&萬分感謝版主的無私發佈分享%
回复 支持 反对

使用道具 举报

0

主题

5

帖子

54

积分

新手上路

Rank: 1

积分
54
发表于 2022-8-25 19:02:24 | 显示全部楼层
啊啊啊啊啊啊啊啊啊啊啊
回复 支持 反对

使用道具 举报

1

主题

1650

帖子

4572

积分

4K家园VIP

Rank: 9Rank: 9Rank: 9

积分
4572
发表于 2022-8-25 19:08:02 来自手机 | 显示全部楼层
楼猪V5啊
回复 支持 反对

使用道具 举报

0

主题

30

帖子

405

积分

新手上路

Rank: 1

积分
405
发表于 2022-8-25 19:19:06 | 显示全部楼层
gooooood!别的地方找好久都没有。
回复 支持 反对

使用道具 举报

2

主题

1338

帖子

3864

积分

4K家园VIP

Rank: 9Rank: 9Rank: 9

积分
3864
发表于 2022-8-25 19:22:20 | 显示全部楼层
支持楼主,用户楼主,楼主英明呀!!!
回复 支持 反对

使用道具 举报

1

主题

1639

帖子

4491

积分

4K家园VIP

Rank: 9Rank: 9Rank: 9

积分
4491
发表于 2022-8-25 19:23:39 来自手机 | 显示全部楼层
very good
回复 支持 反对

使用道具 举报

0

主题

475

帖子

2895

积分

注册会员

Rank: 2

积分
2895
发表于 2022-8-26 12:23:11 | 显示全部楼层
有字幕没
回复

使用道具 举报

您需要登录后才可以回帖 登录 | 立即注册

本版积分规则

精彩图文
Archiver|手机版|TAG|Sitemap|新帖|专题|联系我们:邮箱: 4kjia.com@gmail.com   

4k家园   ©2019