[4K电影] 夏洛特的网 [简繁中字] / Charlotte's Web (2006) 4K高清版本下载

[复制链接]

2327

主题

2476

帖子

1万

积分

超级版主

Rank: 8Rank: 8

积分
17940
 楼主| 发表于 2022-8-28 10:58:50 | 显示全部楼层 |阅读模式
QQ图片20220828103921_副本.png

◎译  名 夏洛特的网/篱笆墙外/夏洛的网/莎乐的神奇网网/夏绿蒂的网/Schweinchen Wilbur und seine Freunde
◎片  名 Charlotte's Web
◎年  代 2006
◎产  地 美国/德国
◎类  别 喜剧/家庭/奇幻
◎语  言 英语
◎上映日期 2006-12-15(美国)
◎IMDb评分 6.3/10 from 42159 users 更新 : 2022-08-26
◎IMDb链接 https://www.imdb.com/title/tt0413895/
◎豆瓣评分 8.0/10 from 68234  users 更新 : 2022-08-28
◎豆瓣链接 https://movie.douban.com/subject/1457218/
◎导  演 盖瑞·温尼克 Gary Winick
◎编  剧 苏珊娜·格兰特 Susannah Grant / 凯瑞·柯克帕特里克 Karey Kirkpatrick
◎主  演 朱莉娅·罗伯茨 Julia Roberts
       史蒂夫·布西密 Steve Buscemi
       约翰·克里斯 John Cleese
       奥普拉·温弗瑞 Oprah Winfrey
       塞德里克·凯尔斯 Cedric the Entertainer
       凯西·贝茨 Kathy Bates
       瑞芭·麦肯泰尔 Reba McEntire
       罗伯特·雷德福 Robert Redford
       托马斯·哈登·丘奇 Thomas Haden Church
       安德雷·本杰明 André Benjamin
       多米尼克·斯科特·凯伊 Dominic Scott Kay
       山姆·夏普德 Sam Shepard
       亚布拉哈姆·本鲁比 Abraham Benrubi
       达科塔·范宁 Dakota Fanning
       凯文·安德森 Kevin Anderson
       埃茜·戴维斯 Essie Davis
       路易·科比特 Louis Corbett
       鹤田真由 Mayu Tsuruta
       博·布里奇斯 Beau Bridges
       希博汗·法隆 Siobhan Fallon
       尼古拉斯·贝尔 Nicholas Bell
       布赖恩·斯特帕尼克 Brian Stepanek
       弗雷德·塔特西奥 Fred Tatasciore
       布拉德利·怀特 Bradley White
       盖里·巴萨拉巴 Gary Basaraba
       内特·莫尼 Nate Mooney
       唐·布里奇斯 Don Bridges
       罗伯特·普拉泽克 Robert Plazek
       沃·特金 Ian Watkin
       Teague Rook Teague Rook
       乔尔·麦克拉里 Joel McCrary
       艾拉·斯科特·林奇 Ella Scott Lynch
       格雷格·玛丽安 Greg Marian
       斯特凡诺·马泽奥 Stefano Mazzeo
       朱利安·奥唐纳 Julian O'Donnell


◎简  介


  小女孩阿芬家的母猪在春天生下了一窝11只小猪,母猪只有十个奶头,最瘦弱的一只小猪没奶吃,阿芬爸爸准备将其杀掉。阿芬救下了小猪,帮它取名韦宝,亲自喂养。
  随着小猪慢慢长大,阿芬不能再在家里养韦宝了,阿芬只好把韦宝送到隔壁舅舅的农场里继续饲养。韦宝天真烂漫,很快就以其热情、开朗的性格和农场里的动物成了好朋友。
  幸福快乐的时光很快过去,韦宝从其他动物口中得知春天出生的小猪圣诞节前就会被杀掉制熏肉。韦宝的好朋友蜘蛛莎莉承诺会让韦宝看到冬天的雪。在老鼠的帮助下,莎莉织出了各种各样神奇的字来形容韦宝,引来人们争相观看,韦宝最终能否看到冬天的雪?

Video
ID : 1
Format : HEVC
Format/Info : High Efficiency Video Coding
Format profile : Main 10@L5@High
HDR format : Dolby Vision, Version 1.0, dvhe.05.06, BL+RPU
Codec ID : V_MPEGH/ISO/HEVC
Duration : 1 h 36 min
Bit rate : 24.2 Mb/s
Width : 3 840 pixels
Height : 2 076 pixels
Display aspect ratio : 1.85:1
Frame rate mode : Constant
Frame rate : 23.976 (24000/1001) FPS
Color space : YUV
Chroma subsampling : 4:2:0
Bit depth : 10 bits
Bits/(Pixel*Frame) : 0.127
Stream size : 16.4 GiB (82%)
Default : Yes
Forced : No

Audio #1
ID : 2
Format : DTS XLL
Format/Info : Digital Theater Systems
Commercial name : DTS-HD Master Audio
Codec ID : A_DTS
Duration : 1 h 36 min
Bit rate mode : Variable
Bit rate : 4 077 kb/s
Channel(s) : 6 channels
Channel layout : C L R Ls Rs LFE
Sampling rate : 48.0 kHz
Frame rate : 93.750 FPS (512 SPF)
Bit depth : 24 bits
Compression mode : Lossless
Stream size : 2.76 GiB (14%)
Title : DTS-HD MA 5.1 / 48 kHz / 4077 kbps / 24-bit (DTS Core: 5.1 / 48 kHz / 1509 kbps / 24-bit)
Language : English
Default : Yes
Forced : No

Audio #2
ID : 3
Format : AC-3
Format/Info : Audio Coding 3
Commercial name : Dolby Digital
Codec ID : A_AC3
Duration : 1 h 36 min
Bit rate mode : Constant
Bit rate : 640 kb/s
Channel(s) : 6 channels
Channel layout : L R C LFE Ls Rs
Sampling rate : 48.0 kHz
Frame rate : 31.250 FPS (1536 SPF)
Compression mode : Lossy
Stream size : 444 MiB (2%)
Title : DD 5.1
Language : English
Service kind : Complete Main
Default : No
Forced : No

Audio #3
ID : 4
Format : AC-3
Format/Info : Audio Coding 3
Commercial name : Dolby Digital
Codec ID : A_AC3
Duration : 1 h 36 min
Bit rate mode : Constant
Bit rate : 256 kb/s
Channel(s) : 2 channels
Channel layout : L R
Sampling rate : 48.0 kHz
Frame rate : 31.250 FPS (1536 SPF)
Compression mode : Lossy
Stream size : 178 MiB (1%)
Title : (Commentary by Director Gary Winick)
Language : English
Service kind : Complete Main
Default : No
Forced : No

Audio #4
ID : 5
Format : AC-3
Format/Info : Audio Coding 3
Commercial name : Dolby Digital
Codec ID : A_AC3
Duration : 1 h 36 min
Bit rate mode : Constant
Bit rate : 256 kb/s
Channel(s) : 2 channels
Channel layout : L R
Sampling rate : 48.0 kHz
Frame rate : 31.250 FPS (1536 SPF)
Compression mode : Lossy
Stream size : 178 MiB (1%)
Title : (Commentary by Producer Jordan Kerner and Visual Effects Supervisor John Andrew Berton Jr.)
Language : English
Service kind : Complete Main
Default : No
Forced : No

Text #1
ID : 6
Format : UTF-8
Codec ID : S_TEXT/UTF8
Codec ID/Info : UTF-8 Plain Text
Duration : 1 h 25 min
Bit rate : 69 b/s
Frame rate : 0.281 FPS
Count of elements : 1444
Stream size : 43.7 KiB (0%)
Language : English
Default : Yes
Forced : No

Text #2
ID : 7
Format : UTF-8
Codec ID : S_TEXT/UTF8
Codec ID/Info : UTF-8 Plain Text
Duration : 1 h 32 min
Bit rate : 71 b/s
Frame rate : 0.300 FPS
Count of elements : 1664
Stream size : 48.2 KiB (0%)
Title : SDH
Language : English
Default : No
Forced : No

Text #3
ID : 8
Format : UTF-8
Codec ID : S_TEXT/UTF8
Codec ID/Info : UTF-8 Plain Text
Duration : 1 h 28 min
Bit rate : 98 b/s
Frame rate : 0.233 FPS
Count of elements : 1236
Stream size : 64.1 KiB (0%)
Language : Arabic
Default : No
Forced : No

Text #4
ID : 9
Format : UTF-8
Codec ID : S_TEXT/UTF8
Codec ID/Info : UTF-8 Plain Text
Duration : 1 h 28 min
Bit rate : 60 b/s
Frame rate : 0.235 FPS
Count of elements : 1244
Stream size : 39.2 KiB (0%)
Title : Brazilian
Language : Portuguese
Default : No
Forced : No

Text #5
ID : 10
Format : UTF-8
Codec ID : S_TEXT/UTF8
Codec ID/Info : UTF-8 Plain Text
Duration : 1 h 25 min
Bit rate : 109 b/s
Frame rate : 0.246 FPS
Count of elements : 1263
Stream size : 68.7 KiB (0%)
Language : Bulgarian
Default : No
Forced : No

Text #6
ID : 11
Format : UTF-8
Codec ID : S_TEXT/UTF8
Codec ID/Info : UTF-8 Plain Text
Duration : 1 h 25 min
Bit rate : 52 b/s
Frame rate : 0.242 FPS
Count of elements : 1242
Stream size : 32.7 KiB (0%)
Title : 简体
Language : 中文
Default : No
Forced : No

Text #7
ID : 12
Format : UTF-8
Codec ID : S_TEXT/UTF8
Codec ID/Info : UTF-8 Plain Text
Duration : 1 h 25 min
Bit rate : 49 b/s
Frame rate : 0.229 FPS
Count of elements : 1177
Stream size : 30.8 KiB (0%)
Title : 繁体
Language : 中文
Default : No
Forced : No

Text #8
ID : 13
Format : UTF-8
Codec ID : S_TEXT/UTF8
Codec ID/Info : UTF-8 Plain Text
Duration : 1 h 25 min
Bit rate : 68 b/s
Frame rate : 0.247 FPS
Count of elements : 1265
Stream size : 42.7 KiB (0%)
Language : Danish
Default : No
Forced : No

Text #9
ID : 14
Format : UTF-8
Codec ID : S_TEXT/UTF8
Codec ID/Info : UTF-8 Plain Text
Duration : 1 h 28 min
Bit rate : 63 b/s
Frame rate : 0.234 FPS
Count of elements : 1240
Stream size : 40.9 KiB (0%)
Title : Latin American
Language : Spanish
Default : No
Forced : No

Text #10
ID : 15
Format : UTF-8
Codec ID : S_TEXT/UTF8
Codec ID/Info : UTF-8 Plain Text
Duration : 1 h 25 min
Bit rate : 66 b/s
Frame rate : 0.247 FPS
Count of elements : 1266
Stream size : 41.6 KiB (0%)
Language : Finnish
Default : No
Forced : No

Text #11
ID : 16
Format : UTF-8
Codec ID : S_TEXT/UTF8
Codec ID/Info : UTF-8 Plain Text
Duration : 1 h 28 min
Bit rate : 96 b/s
Frame rate : 0.234 FPS
Count of elements : 1242
Stream size : 62.5 KiB (0%)
Language : Hebrew
Default : No
Forced : No

Text #12
ID : 17
Format : UTF-8
Codec ID : S_TEXT/UTF8
Codec ID/Info : UTF-8 Plain Text
Duration : 1 h 25 min
Bit rate : 56 b/s
Frame rate : 0.232 FPS
Count of elements : 1191
Stream size : 35.5 KiB (0%)
Language : Dutch
Default : No
Forced : No

Text #13
ID : 18
Format : UTF-8
Codec ID : S_TEXT/UTF8
Codec ID/Info : UTF-8 Plain Text
Duration : 1 h 25 min
Bit rate : 63 b/s
Frame rate : 0.246 FPS
Count of elements : 1261
Stream size : 39.8 KiB (0%)
Language : Norwegian
Default : No
Forced : No

Text #14
ID : 19
Format : UTF-8
Codec ID : S_TEXT/UTF8
Codec ID/Info : UTF-8 Plain Text
Duration : 1 h 25 min
Bit rate : 65 b/s
Frame rate : 0.246 FPS
Count of elements : 1260
Stream size : 40.9 KiB (0%)
Language : Polish
Default : No
Forced : No

Text #15
ID : 20
Format : UTF-8
Codec ID : S_TEXT/UTF8
Codec ID/Info : UTF-8 Plain Text
Duration : 1 h 28 min
Bit rate : 62 b/s
Frame rate : 0.232 FPS
Count of elements : 1230
Stream size : 40.6 KiB (0%)
Title : European
Language : Portuguese
Default : No
Forced : No

Text #16
ID : 21
Format : UTF-8
Codec ID : S_TEXT/UTF8
Codec ID/Info : UTF-8 Plain Text
Duration : 1 h 25 min
Bit rate : 111 b/s
Frame rate : 0.246 FPS
Count of elements : 1262
Stream size : 70.1 KiB (0%)
Language : Russian
Default : No
Forced : No

Text #17
ID : 22
Format : UTF-8
Codec ID : S_TEXT/UTF8
Codec ID/Info : UTF-8 Plain Text
Duration : 1 h 28 min
Bit rate : 61 b/s
Frame rate : 0.229 FPS
Count of elements : 1214
Stream size : 40.0 KiB (0%)
Language : Swedish
Default : No
Forced : No

Text #18
ID : 23
Format : UTF-8
Codec ID : S_TEXT/UTF8
Codec ID/Info : UTF-8 Plain Text
Duration : 1 h 25 min
Bit rate : 66 b/s
Frame rate : 0.243 FPS
Count of elements : 1247
Stream size : 41.4 KiB (0%)
Language : Turkish
Default : No
Forced : No

Text #19
ID : 24
Format : UTF-8
Codec ID : S_TEXT/UTF8
Codec ID/Info : UTF-8 Plain Text
Duration : 1 h 25 min
Bit rate : 44 b/s
Frame rate : 0.239 FPS
Count of elements : 1228
Stream size : 28.0 KiB (0%)
Title : Traditional
Language : Chinese
Default : No
Forced : No

Text #20
ID : 25
Format : UTF-8
Codec ID : S_TEXT/UTF8
Codec ID/Info : UTF-8 Plain Text
Duration : 1 h 25 min
Bit rate : 62 b/s
Frame rate : 0.242 FPS
Count of elements : 1241
Stream size : 39.0 KiB (0%)
Language : French
Default : No
Forced : No

Text #21
ID : 26
Format : UTF-8
Codec ID : S_TEXT/UTF8
Codec ID/Info : UTF-8 Plain Text
Duration : 1 h 25 min
Bit rate : 70 b/s
Frame rate : 0.247 FPS
Count of elements : 1266
Stream size : 44.2 KiB (0%)
Language : German
Default : No
Forced : No

Text #22
ID : 27
Format : UTF-8
Codec ID : S_TEXT/UTF8
Codec ID/Info : UTF-8 Plain Text
Duration : 1 h 35 min
Bit rate : 151 b/s
Frame rate : 0.219 FPS
Count of elements : 1258
Stream size : 106 KiB (0%)
Language : Hindi
Default : No
Forced : No

Text #23
ID : 28
Format : UTF-8
Codec ID : S_TEXT/UTF8
Codec ID/Info : UTF-8 Plain Text
Duration : 1 h 25 min
Bit rate : 63 b/s
Frame rate : 0.246 FPS
Count of elements : 1264
Stream size : 39.9 KiB (0%)
Language : Indonesian
Default : No
Forced : No

Text #24
ID : 29
Format : UTF-8
Codec ID : S_TEXT/UTF8
Codec ID/Info : UTF-8 Plain Text
Duration : 1 h 25 min
Bit rate : 68 b/s
Frame rate : 0.246 FPS
Count of elements : 1263
Stream size : 42.7 KiB (0%)
Language : Italian
Default : No
Forced : No

Text #25
ID : 30
Format : UTF-8
Codec ID : S_TEXT/UTF8
Codec ID/Info : UTF-8 Plain Text
Duration : 1 h 28 min
Bit rate : 57 b/s
Frame rate : 0.234 FPS
Count of elements : 1248
Stream size : 37.1 KiB (0%)
Language : Japanese
Default : No
Forced : No

Text #26
ID : 31
Format : UTF-8
Codec ID : S_TEXT/UTF8
Codec ID/Info : UTF-8 Plain Text
Duration : 1 h 25 min
Bit rate : 66 b/s
Frame rate : 0.244 FPS
Count of elements : 1252
Stream size : 41.8 KiB (0%)
Language : Korean
Default : No
Forced : No

Text #27
ID : 32
Format : UTF-8
Codec ID : S_TEXT/UTF8
Codec ID/Info : UTF-8 Plain Text
Duration : 1 h 25 min
Bit rate : 71 b/s
Frame rate : 0.246 FPS
Count of elements : 1260
Stream size : 44.7 KiB (0%)
Language : Malay
Default : No
Forced : No

Text #28
ID : 33
Format : UTF-8
Codec ID : S_TEXT/UTF8
Codec ID/Info : UTF-8 Plain Text
Duration : 1 h 35 min
Bit rate : 59 b/s
Frame rate : 0.220 FPS
Count of elements : 1265
Stream size : 42.0 KiB (0%)
Title : European
Language : Spanish
Default : No
Forced : No

Text #29
ID : 34
Format : UTF-8
Codec ID : S_TEXT/UTF8
Codec ID/Info : UTF-8 Plain Text
Duration : 1 h 25 min
Bit rate : 145 b/s
Frame rate : 0.247 FPS
Count of elements : 1269
Stream size : 91.1 KiB (0%)
Language : Thai
Default : No
Forced : No

Text #30
ID : 35
Format : UTF-8
Codec ID : S_TEXT/UTF8
Codec ID/Info : UTF-8 Plain Text
Duration : 1 h 35 min
Bit rate : 66 b/s
Frame rate : 0.218 FPS
Count of elements : 1253
Stream size : 46.3 KiB (0%)
Language : Vietnamese
Default : No
Forced : No

Menu
00:00:00.000 : en:Chapter 1
00:06:42.000 : en:Chapter 2
00:13:12.000 : en:Chapter 3
00:19:57.000 : en:Chapter 4
00:25:10.000 : en:Chapter 5
00:32:29.000 : en:Chapter 6
00:36:26.000 : en:Chapter 7
00:41:02.000 : en:Chapter 8
00:45:45.000 : en:Chapter 9
00:49:21.000 : en:Chapter 10
00:53:01.000 : en:Chapter 11
00:59:27.000 : en:Chapter 12
01:06:16.000 : en:Chapter 13
01:10:09.000 : en:Chapter 14
01:18:01.000 : en:Chapter 15
01:27:05.000 : en:Chapter 16
01:36:00.000 : en:Credits


资源速度为零或资源敏感被和谐时,推荐使用qBittorrent等下载软件,有条件的推荐115更好的下载软件!

下载地址:


游客,如果您要查看本帖隐藏内容请回复

游客,如果您要查看本帖隐藏内容请回复

游客,如果您要查看本帖隐藏内容请回复

游客,如果您要查看本帖隐藏内容请回复





上一篇:致命伴旅 / The Tourist (2010) 4K高清版本下载
下一篇:旋转人生 / Spin Me Round (2022) 4K高清版本下载
回复

使用道具 举报

2

主题

1171

帖子

3531

积分

4K家园VIP

Rank: 9Rank: 9Rank: 9

积分
3531
发表于 2022-8-28 10:58:53 来自手机 | 显示全部楼层
支持,赞一个
回复 支持 反对

使用道具 举报

1

主题

1379

帖子

3969

积分

4K家园VIP

Rank: 9Rank: 9Rank: 9

积分
3969
发表于 2022-8-28 10:58:54 | 显示全部楼层
鄙视楼下的顶帖没我快,哈哈
回复 支持 反对

使用道具 举报

0

主题

8663

帖子

2万

积分

4K家园VIP

Rank: 9Rank: 9Rank: 9

积分
20189
发表于 2022-8-28 11:28:29 | 显示全部楼层
夏洛特的網[簡繁]4k
回复 支持 反对

使用道具 举报

0

主题

475

帖子

2895

积分

注册会员

Rank: 2

积分
2895
发表于 2022-8-28 12:00:05 | 显示全部楼层
谢谢楼主分享
回复 支持 反对

使用道具 举报

0

主题

3

帖子

16

积分

新手上路

Rank: 1

积分
16
发表于 2022-8-28 16:12:05 | 显示全部楼层
dddddddddddddddddd
回复 支持 反对

使用道具 举报

0

主题

2

帖子

9

积分

新手上路

Rank: 1

积分
9
发表于 2022-8-29 10:52:06 | 显示全部楼层
支持啊。动画片很少啊!
回复 支持 反对

使用道具 举报

0

主题

1368

帖子

3926

积分

4K家园VIP

Rank: 9Rank: 9Rank: 9

积分
3926
发表于 2022-9-9 19:09:26 | 显示全部楼层
支持,楼下的跟上哈~
回复 支持 反对

使用道具 举报

49

主题

1490

帖子

4272

积分

4K家园VIP

Rank: 9Rank: 9Rank: 9

积分
4272
发表于 2022-9-10 20:39:14 来自手机 | 显示全部楼层
出4K版啦,下个看看
回复 支持 反对

使用道具 举报

40

主题

1520

帖子

4372

积分

4K家园VIP

Rank: 9Rank: 9Rank: 9

积分
4372
发表于 2022-9-11 09:59:25 | 显示全部楼层
4K家园不错,希望这种资源越多越好
回复 支持 反对

使用道具 举报

您需要登录后才可以回帖 登录 | 立即注册

本版积分规则

精彩图文
Archiver|手机版|TAG|Sitemap|新帖|专题|联系我们:邮箱: 4kjia.com@gmail.com   

4k家园   ©2019