[4K美女视频] 2019韩国比基尼健美比赛现场实拍126[2160/MP4/310MB]

[复制链接]

800

主题

883

帖子

5531

积分

超级版主

Rank: 8Rank: 8

积分
5531
 楼主| 发表于 2019-7-7 11:12:59 | 显示全部楼层 |阅读模式

韩国比基尼健美比赛现场实拍126.mp4_20190705_220557.125.jpg 韩国比基尼健美比赛现场实拍126.mp4_20190705_220610.751.jpg 韩国比基尼健美比赛现场实拍126.mp4_20190705_220617.058.jpg 韩国比基尼健美比赛现场实拍126.mp4_20190705_220622.079.jpg

General
Complete name                  : 4K视频\韩国比基尼健美比赛现场实拍126.mp4
Format                         : MPEG-4
Format profile                 : Base Media
Codec ID                       : isom (isom/iso2/avc1/mp41)
File size                      : 310 MiB
Duration                       : 2 min 45 s
Overall bit rate               : 15.8 Mb/s
Writing application            : Lavf58.12.100

Video
ID                             : 1
Format                         : AVC
Format/Info                    : Advanced Video Codec
Format profile                 : [email protected]
Format settings                : CABAC / 4 Ref Frames
Format settings, CABAC         : Yes
Format settings, Reference fra : 4 frames
Codec ID                       : avc1
Codec ID/Info                  : Advanced Video Coding
Duration                       : 2 min 45 s
Bit rate                       : 16.0 Mb/s
Width                          : 3 840 pixels
Height                         : 2 160 pixels
Display aspect ratio           : 16:9
Frame rate mode                : Constant
Frame rate                     : 29.000 FPS
Color space                    : YUV
Chroma subsampling             : 4:2:0
Bit depth                      : 8 bits
Scan type                      : Progressive
Bits/(Pixel*Frame)             : 0.067
Stream size                    : 308 MiB (99%)
Writing library                : x264 core 148
Encoding settings              : cabac=1 / ref=3 / deblock=1:0:0 / analyse=0x3:0x113 / me=hex / subme=7 / psy=1 / psy_rd=1.00:0.00 / mixed_ref=1 / me_range=16 / chroma_me=1 / trellis=1 / 8x8dct=1 / cqm=0 / deadzone=21,11 / fast_pskip=1 / chroma_qp_offset=-2 / threads=6 / lookahead_threads=1 / sliced_threads=0 / nr=0 / decimate=1 / interlaced=0 / bluray_compat=0 / constrained_intra=0 / bframes=3 / b_pyramid=2 / b_adapt=1 / b_bias=0 / direct=1 / weightb=1 / open_gop=0 / weightp=2 / keyint=250 / keyint_min=25 / scenecut=40 / intra_refresh=0 / rc_lookahead=40 / rc=abr / mbtree=1 / bitrate=16000 / ratetol=1.0 / qcomp=0.60 / qpmin=0 / qpmax=69 / qpstep=4 / ip_ratio=1.40 / aq=1:1.00
Language                       : English
Codec configuration box        : avcC

Audio
ID                             : 2
Format                         : AAC LC
Format/Info                    : Advanced Audio Codec Low Complexity
Codec ID                       : mp4a-40-2
Duration                       : 2 min 45 s
Duration_LastFrame             : -1 ms
Bit rate mode                  : Constant
Bit rate                       : 129 kb/s
Channel(s)                     : 2 channels
Channel layout                 : L R
Sampling rate                  : 44.1 kHz
Frame rate                     : 43.066 FPS (1024 SPF)
Compression mode               : Lossy
Stream size                    : 2.54 MiB (1%)
Language                       : English
Default                        : Yes
Alternate group                : 1



网盘下载失效不补:链接: https://pan.baidu.com/s/194mWLqwKjciza2t4L9ZyJg
****此区域为收费内容****    需支付 15 金币后可查看立即购买

1.gif






.
韩国比基尼健美比赛现场实拍126.mp4.jpg

上一篇:2019韩国模特-康伊娜[2160/MP4/288MB]
下一篇:国际游艇-竞技模特陈夏珍、韩敏英[2160/MP4/798MB]
回复

使用道具 举报

0

主题

959

帖子

2689

积分

4K家园VIP

Rank: 9Rank: 9Rank: 9

积分
2689
发表于 2019-7-7 11:13:09 | 显示全部楼层
专业抢沙发的!哈哈
回复 支持 反对

使用道具 举报

0

主题

16

帖子

52

积分

新手上路

Rank: 1

积分
52
发表于 2019-7-7 17:20:59 | 显示全部楼层
强壮啊        啊啊啊啊
回复 支持 反对

使用道具 举报

0

主题

912

帖子

2588

积分

4K家园VIP

Rank: 9Rank: 9Rank: 9

积分
2588
发表于 2019-7-8 02:47:10 | 显示全部楼层
好,很好,非常好!
回复 支持 反对

使用道具 举报

0

主题

81

帖子

248

积分

新手上路

Rank: 1

积分
248
发表于 2019-7-8 12:39:34 | 显示全部楼层

这个帖子不回对不起自己!我想我是一天也不能离开4K家园。
回复 支持 反对

使用道具 举报

0

主题

10

帖子

49

积分

新手上路

Rank: 1

积分
49
发表于 2019-7-8 20:18:51 | 显示全部楼层
楼主发贴辛苦了,谢谢楼主分享!我觉得来4K家园是注册对了!
回复 支持 反对

使用道具 举报

0

主题

10

帖子

49

积分

新手上路

Rank: 1

积分
49
发表于 2019-7-8 20:19:31 | 显示全部楼层
不过这个金币要怎么得
回复 支持 反对

使用道具 举报

42

主题

983

帖子

2771

积分

4K家园VIP

Rank: 9Rank: 9Rank: 9

积分
2771
发表于 2019-7-8 22:50:16 | 显示全部楼层
路过的帮顶
回复 支持 反对

使用道具 举报

0

主题

915

帖子

2755

积分

4K家园VIP

Rank: 9Rank: 9Rank: 9

积分
2755
发表于 2019-7-9 05:07:40 | 显示全部楼层
路过
回复 支持 反对

使用道具 举报

0

主题

925

帖子

2591

积分

4K家园VIP

Rank: 9Rank: 9Rank: 9

积分
2591
发表于 2019-7-9 09:43:10 | 显示全部楼层
体验下4K版的
回复 支持 反对

使用道具 举报

您需要登录后才可以回帖 登录 | 立即注册

本版积分规则

精彩图文
关闭

站长推荐上一条 /2 下一条

4k家园   ©2019