弗拉特布什轻罪 (2022) 第一季全/4K高清版本下载

[复制链接]

205

主题

228

帖子

2261

积分

版主

Rank: 7Rank: 7Rank: 7

积分
2261
 楼主| 发表于 2022-8-29 11:29:01 | 显示全部楼层 |阅读模式
QQ图片20220829110857_副本.png

◎译  名 弗拉特布什轻罪
◎片  名 Flatbush Misdemeanors
◎年  代 2022
◎产  地 美国
◎类  别 喜剧
◎语  言 英语
◎上映日期 2021-05-23(美国)
◎IMDb评分 6.5/10 from 700 users  更新 : 2022-08-25
◎IMDb链接 https://www.imdb.com/title/tt13266618/
◎豆瓣评分 0/10 from 0 users
◎豆瓣链接 https://movie.douban.com/subject/35413869/
◎编  辑 凯文·伊索 Kevin Iso / 丹·帕尔曼 Dan Perlman
◎主  演 丹·帕尔曼 Dan Perlman
                   凯文·伊索 Kevin Iso
                  克里斯汀·多德森 Kristin Dodson
                  哈桑·约翰逊 Hassan Johnson
                 卡里姆·格林 Kareem Green
                  苏黎里德 Zuri Reed
                  安吉拉·凯瑟琳 Angella Katherine
                  莎琳·克鲁兹 Sharlene Cruz
                  约书亚·J·威廉姆斯 Joshua J. Williams
                  佐伊·温特斯 Zoe Winters
                  伯利恒·百万 Bethlehem Million
                  阿莉莎·林佩里斯 Alyssa Limperis
                  拿破仑·埃米尔 Napoleon Emill
                  克里·科德特 Kerry Coddett
                  莱尼·韦尼托Lenny Venito
                 娜塔莉亚·伊丽莎白 Natalia Elizabeth
                 艾比·贝西 Ebbe Bassey
                 山姆·杰伊 Sam Jay




◎简  介


         这是一部讲述城市生活的原始喜剧,讲述了丹和凯文在布鲁克林弗拉特布什的新环境中艰难成长的故事。
Video
ID : 1
Format : HEVC
Format/Info : High Efficiency Video Coding
Format profile : Main@L5@Main
Codec ID : V_MPEGH/ISO/HEVC
Duration : 28 min 28 s
Bit rate : 14.3 Mb/s
Width : 3 840 pixels
Height : 2 160 pixels
Display aspect ratio : 16:9
Frame rate mode : Constant
Frame rate : 23.976 (24000/1001) FPS
Color space : YUV
Chroma subsampling : 4:2:0
Bit depth : 8 bits
Bits/(Pixel*Frame) : 0.072
Stream size : 2.84 GiB (95%)
Writing library : x265 3.4hy:[Linux][GCC 7.5.0][64 bit] 8bit
Encoding settings : cpuid=1111039 / frame-threads=6 / no-wpp / no-pmode / no-pme / no-psnr / no-ssim / log-level=2 / input-csp=1 / input-res=3840x2160 / interlace=0 / total-frames=0 / level-idc=0 / high-tier=1 / uhd-bd=0 / ref=4 / no-allow-non-conformance / repeat-headers / annexb / aud / hrd / info / hash=0 / no-temporal-layers / no-open-gop / min-keyint=48 / keyint=48 / gop-lookahead=0 / bframes=4 / b-adapt=2 / b-pyramid / bframe-bias=0 / rc-lookahead=48 / lookahead-slices=4 / scenecut=0 / hist-scenecut=0 / radl=0 / no-splice / no-intra-refresh / ctu=64 / min-cu-size=8 / rect / no-amp / max-tu-size=32 / tu-inter-depth=1 / tu-intra-depth=1 / limit-tu=0 / rdoq-level=2 / dynamic-rd=0.00 / no-ssim-rd / signhide / no-tskip / nr-intra=100 / nr-inter=400 / no-constrained-intra / strong-intra-smoothing / max-merge=3 / limit-refs=3 / limit-modes / me=3 / subme=3 / merange=57 / temporal-mvp / no-frame-dup / no-hme / weightp / no-weightb / no-analyze-src-pics / deblock=0:0 / sao / no-sao-non-deblock / rd=4 / selective-sao=4 / no-early-skip / rskip / no-fast-intra / no-tskip-fast / no-cu-lossless / no-b-intra / no-splitrd-skip / rdpenalty=0 / psy-rd=0.00 / psy-rdoq=1.00 / no-rd-refine / no-lossless / cbqpoffs=0 / crqpoffs=0 / rc=abr / bitrate=15000 / qcomp=0.60 / qpstep=4 / stats-write=0 / stats-read=2 / cplxblur=20.0 / qblur=0.5 / vbv-maxrate=18000 / vbv-bufsize=12000 / vbv-init=0.6 / vbv-end=0.6 / vbv-end-fr-adj=0.0 / ipratio=1.40 / pbratio=1.30 / aq-mode=2 / aq-strength=1.00 / cutree / zone-count=0 / no-strict-cbr / qg-size=32 / no-rc-grain / qpmax=69 / qpmin=0 / no-const-vbv / sar=1 / overscan=0 / videoformat=5 / range=0 / colorprim=1 / transfer=1 / colormatrix=1 / chromaloc=0 / display-window=0 / cll=0,0 / min-luma=0 / max-luma=255 / log2-max-poc-lsb=8 / vui-timing-info / vui-hrd-info / no-concatenation / slices=1 / no-opt-qp-pps / no-opt-ref-list-length-pps / no-multi-pass-opt-rps / scenecut-bias=0.05 / hist-threshold=0.01 / no-opt-cu-delta-qp / no-aq-motion / no-hdr10 / no-hdr10-opt / no-dhdr10-opt / no-idr-recovery-sei / analysis-reuse-level=0 / analysis-save-reuse-level=0 / analysis-load-reuse-level=0 / scale-factor=0 / refine-intra=0 / refine-inter=0 / refine-mv=1 / refine-ctu-distortion=0 / no-limit-sao / ctu-info=0 / no-lowpass-dct / refine-analysis-type=0 / copy-pic=1 / max-ausize-factor=1.0 / no-dynamic-refine / no-single-sei / no-hevc-aq / no-svt / no-field / qp-adaptation-range=1.00 / no-scenecut-aware-qpconformance-window-offsets / right=0 / bottom=0 / decoder-max-rate=0
Default : Yes
Forced : No
Color range : Limited
Color primaries : BT.709
Transfer characteristics : BT.709
Matrix coefficients : BT.709

Audio
ID : 2
Format : AC-3
Format/Info : Audio Coding 3
Commercial name : Dolby Digital
Codec ID : A_AC3
Duration : 28 min 28 s
Bit rate mode : Constant
Bit rate : 384 kb/s
Channel(s) : 6 channels
Channel layout : L R C LFE Ls Rs
Sampling rate : 48.0 kHz
Frame rate : 31.250 FPS (1536 SPF)
Compression mode : Lossy
Stream size : 78.2 MiB (3%)
Language : English
Service kind : Complete Main
Default : Yes
Forced : No

Text
ID : 3
Format : UTF-8
Codec ID : S_TEXT/UTF8
Codec ID/Info : UTF-8 Plain Text
Title : English
Language : English
Default : No
Forced : No

下载地址:

游客,如果您要查看本帖隐藏内容请回复
游客,如果您要查看本帖隐藏内容请回复

游客,如果您要查看本帖隐藏内容请回复

游客,如果您要查看本帖隐藏内容请回复





上一篇:地下孩童/Children of the Underground(2022)第一季全/4K高清版本下载
下一篇:孤注一掷:阿森纳 [简繁中字] (2022) 第一季全/4K高清版本下载
回复

使用道具 举报

3

主题

1632

帖子

4538

积分

4K家园VIP

Rank: 9Rank: 9Rank: 9

积分
4538
发表于 2022-8-29 11:30:06 来自手机 | 显示全部楼层
支持一下楼主发表的内容
回复 支持 反对

使用道具 举报

0

主题

8668

帖子

2万

积分

4K家园VIP

Rank: 9Rank: 9Rank: 9

积分
20210
发表于 2022-8-29 11:55:50 | 显示全部楼层
太好啦&萬分感謝版主的無私發佈分享%
回复 支持 反对

使用道具 举报

0

主题

1393

帖子

4195

积分

4K家园VIP

Rank: 9Rank: 9Rank: 9

积分
4195
发表于 2022-8-29 21:34:38 | 显示全部楼层
看帖要回,回帖才健康,在踩踩,楼主辛苦了!
回复 支持 反对

使用道具 举报

1

主题

1522

帖子

4416

积分

4K家园VIP

Rank: 9Rank: 9Rank: 9

积分
4416
发表于 2022-8-29 23:16:23 来自手机 | 显示全部楼层
传说中的沙发???哇卡卡
回复 支持 反对

使用道具 举报

3

主题

1396

帖子

4020

积分

4K家园VIP

Rank: 9Rank: 9Rank: 9

积分
4020
发表于 2022-8-30 06:56:49 来自手机 | 显示全部楼层
众里寻他千百度,蓦然回首在这里!
回复 支持 反对

使用道具 举报

3

主题

1483

帖子

4303

积分

4K家园VIP

Rank: 9Rank: 9Rank: 9

积分
4303
发表于 2022-8-30 09:21:56 | 显示全部楼层
路过的帮顶
回复 支持 反对

使用道具 举报

0

主题

2

帖子

9

积分

新手上路

Rank: 1

积分
9
发表于 2022-9-25 16:46:49 | 显示全部楼层
大感谢!
回复

使用道具 举报

0

主题

2

帖子

9

积分

新手上路

Rank: 1

积分
9
发表于 2022-9-25 16:47:46 | 显示全部楼层
waoooooo
回复

使用道具 举报

您需要登录后才可以回帖 登录 | 立即注册

本版积分规则

精彩图文
Archiver|手机版|TAG|Sitemap|新帖|专题|联系我们:邮箱: 4kjia.com@gmail.com   

4k家园   ©2019