苏夫塞德女孩 [简繁粤中字] (2022) 第一季全/4K高清版本下载

[复制链接]

205

主题

228

帖子

2261

积分

版主

Rank: 7Rank: 7Rank: 7

积分
2261
 楼主| 发表于 2022-8-29 12:22:52 | 显示全部楼层 |阅读模式
p2878246288_副本.jpg

◎译  名 苏夫塞德女孩 第一季/冲浪女孩/海边女孩
◎片  名 Surfside Girls Season 1
◎年  代 2022
◎产  地 美国
◎类  别 剧情/冒险
◎语  言 英语
◎上映日期 2022-08-19(美国)
◎IMDb评分 6.8/10 from 79 users 更新 : 2022-08-28
◎IMDb链接 https://www.imdb.com/title/tt16390162/
◎豆瓣评分 /10 from 0 users
◎豆瓣链接 https://douban.com/subject/35745492/
◎主  演 米娅·切赫 Miya Cech
       艾梅伯·马丁内斯 Amber Martinez
       索妮塔·亨利 Sonita Henry
       贾克波·瓦格斯 Jacob Vargas
       米歇尔·毛 Michelle Mao
       凯文·洛克 Kevin Rock
       Victoria Blade Victoria Blade


◎简  介

  山姆和杰德在 Surfside 镇寻找隐藏的宝藏——但他们可能不得不在麻烦冲上岸之前阻止它。影片根据金德威内尔(Kim Dwinell)的畅销图画小说系列改编。

Video
ID : 1
Format : HEVC
Format/Info : High Efficiency Video Coding
Format profile : Main 10@L5@High
HDR format : Dolby Vision, Version 1.0, dvhe.05.06, BL+RPU
Codec ID : dvhe
Codec ID/Info : High Efficiency Video Coding with Dolby Vision
Duration : 26 min 37 s
Bit rate : 24.7 Mb/s
Width : 3 840 pixels
Height : 2 160 pixels
Display aspect ratio : 16:9
Frame rate mode : Constant
Frame rate : 23.976 (24000/1001) FPS
Color space : YUV
Chroma subsampling : 4:2:0
Bit depth : 10 bits
Bits/(Pixel*Frame) : 0.124
Stream size : 4.59 GiB (97%)
Default : Yes
Alternate group : 1
Encoded date : UTC 2022-08-19 05:49:25
Tagged date : UTC 2022-08-19 05:49:39
Codec configuration box : hvcC+dvcC

Audio
ID : 2
Format : E-AC-3 JOC
Format/Info : Enhanced AC-3 with Joint Object Coding
Commercial name : Dolby Digital Plus with Dolby Atmos
Codec ID : ec-3
Duration : 26 min 37 s
Bit rate mode : Constant
Bit rate : 768 kb/s
Maximum bit rate : 811 kb/s
Channel(s) : 6 channels
Channel layout : L R C LFE Ls Rs
Sampling rate : 48.0 kHz
Frame rate : 31.250 FPS (1536 SPF)
Compression mode : Lossy
Stream size : 146 MiB (3%)
Title : English
Language : English
Service kind : Complete Main
Default : Yes
Alternate group : 1
Tagged date : UTC 2022-08-19 05:49:39
Complexity index : Not present / 16
Number of dynamic objects : 15
Bed channel count : 1 channel
Bed channel configuration : LFE

Text #1
ID : 3
Format : Timed Text
Codec ID : tx3g
Duration : 25 min 21 s
Bit rate mode : Variable
Bit rate : 83 b/s
Frame rate : 0.476 FPS
Stream size : 15.4 KiB (0%)
Title : English
Language : English
Forced : No
Encoded date : UTC 2022-08-19 05:49:38
Tagged date : UTC 2022-08-19 05:49:39

Text #2
ID : 4
Format : Timed Text
Codec ID : tx3g
Duration : 25 min 26 s
Bit rate mode : Variable
Bit rate : 89 b/s
Frame rate : 0.499 FPS
Stream size : 16.7 KiB (0%)
Title : English
Language : English
Forced : No
Encoded date : UTC 2022-08-19 05:49:38
Tagged date : UTC 2022-08-19 05:49:39

Text #3
ID : 5
Format : Timed Text
Codec ID : tx3g
Duration : 26 min 30 s
Bit rate mode : Variable
Bit rate : 114 b/s
Frame rate : 0.474 FPS
Stream size : 22.1 KiB (0%)
Title : Arabic
Language : Arabic
Forced : No
Encoded date : UTC 2022-08-19 05:49:38
Tagged date : UTC 2022-08-19 05:49:39

Text #4
ID : 6
Format : Timed Text
Codec ID : tx3g
Duration : 26 min 30 s
Bit rate mode : Variable
Bit rate : 103 b/s
Frame rate : 0.431 FPS
Stream size : 20.0 KiB (0%)
Title : Bulgarian
Language : Bulgarian
Forced : No
Encoded date : UTC 2022-08-19 05:49:38
Tagged date : UTC 2022-08-19 05:49:39

Text #5
ID : 7
Format : Timed Text
Codec ID : tx3g
Duration : 26 min 30 s
Bit rate mode : Variable
Bit rate : 69 b/s
Frame rate : 0.477 FPS
Stream size : 13.3 KiB (0%)
Title : 中文(粤语)
Language : 中文
Forced : No
Encoded date : UTC 2022-08-19 05:49:38
Tagged date : UTC 2022-08-19 05:49:39

Text #6
ID : 8
Format : Timed Text
Codec ID : tx3g
Duration : 26 min 30 s
Bit rate mode : Variable
Bit rate : 73 b/s
Frame rate : 0.475 FPS
Stream size : 14.1 KiB (0%)
Title : 中文(简体)
Language : 中文
Forced : No
Encoded date : UTC 2022-08-19 05:49:38
Tagged date : UTC 2022-08-19 05:49:39

Text #7
ID : 9
Format : Timed Text
Codec ID : tx3g
Duration : 26 min 30 s
Bit rate mode : Variable
Bit rate : 78 b/s
Frame rate : 0.477 FPS
Stream size : 15.2 KiB (0%)
Title : 中文(繁体)
Language : 中文
Forced : No
Encoded date : UTC 2022-08-19 05:49:38
Tagged date : UTC 2022-08-19 05:49:39

Text #8
ID : 10
Format : Timed Text
Codec ID : tx3g
Duration : 26 min 30 s
Bit rate mode : Variable
Bit rate : 68 b/s
Frame rate : 0.455 FPS
Stream size : 13.2 KiB (0%)
Title : Czech
Language : Czech
Forced : No
Encoded date : UTC 2022-08-19 05:49:38
Tagged date : UTC 2022-08-19 05:49:39

Text #9
ID : 11
Format : Timed Text
Codec ID : tx3g
Duration : 26 min 30 s
Bit rate mode : Variable
Bit rate : 68 b/s
Frame rate : 0.378 FPS
Stream size : 13.3 KiB (0%)
Title : Danish
Language : Danish
Forced : No
Encoded date : UTC 2022-08-19 05:49:38
Tagged date : UTC 2022-08-19 05:49:39

Text #10
ID : 12
Format : Timed Text
Codec ID : tx3g
Duration : 26 min 30 s
Bit rate mode : Variable
Bit rate : 64 b/s
Frame rate : 0.362 FPS
Stream size : 12.5 KiB (0%)
Title : Dutch
Language : Dutch
Forced : No
Encoded date : UTC 2022-08-19 05:49:38
Tagged date : UTC 2022-08-19 05:49:39

Text #11
ID : 13
Format : Timed Text
Codec ID : tx3g
Duration : 26 min 30 s
Bit rate mode : Variable
Bit rate : 70 b/s
Frame rate : 0.440 FPS
Stream size : 13.5 KiB (0%)
Title : Estonian
Language : Estonian
Forced : No
Encoded date : UTC 2022-08-19 05:49:38
Tagged date : UTC 2022-08-19 05:49:39

Text #12
ID : 14
Format : Timed Text
Codec ID : tx3g
Duration : 26 min 30 s
Bit rate mode : Variable
Bit rate : 74 b/s
Frame rate : 0.460 FPS
Stream size : 14.3 KiB (0%)
Title : Finnish
Language : Finnish
Forced : No
Encoded date : UTC 2022-08-19 05:49:38
Tagged date : UTC 2022-08-19 05:49:39

Text #13
ID : 15
Format : Timed Text
Codec ID : tx3g
Duration : 26 min 30 s
Bit rate mode : Variable
Bit rate : 74 b/s
Frame rate : 0.515 FPS
Stream size : 14.4 KiB (0%)
Title : French
Language : French
Forced : No
Encoded date : UTC 2022-08-19 05:49:38
Tagged date : UTC 2022-08-19 05:49:39

Text #14
ID : 16
Format : Timed Text
Codec ID : tx3g
Duration : 26 min 30 s
Bit rate mode : Variable
Bit rate : 74 b/s
Frame rate : 0.517 FPS
Stream size : 14.4 KiB (0%)
Title : French-CA
Language : French
Forced : No
Encoded date : UTC 2022-08-19 05:49:38
Tagged date : UTC 2022-08-19 05:49:39

Text #15
ID : 17
Format : Timed Text
Codec ID : tx3g
Duration : 26 min 30 s
Bit rate mode : Variable
Bit rate : 89 b/s
Frame rate : 0.465 FPS
Stream size : 17.3 KiB (0%)
Title : German
Language : German
Forced : No
Encoded date : UTC 2022-08-19 05:49:38
Tagged date : UTC 2022-08-19 05:49:39

Text #16
ID : 18
Format : Timed Text
Codec ID : tx3g
Duration : 26 min 30 s
Bit rate mode : Variable
Bit rate : 124 b/s
Frame rate : 0.454 FPS
Stream size : 24.0 KiB (0%)
Title : Greek
Language : Greek
Forced : No
Encoded date : UTC 2022-08-19 05:49:38
Tagged date : UTC 2022-08-19 05:49:39

Text #17
ID : 19
Format : Timed Text
Codec ID : tx3g
Duration : 26 min 30 s
Bit rate mode : Variable
Bit rate : 107 b/s
Frame rate : 0.474 FPS
Stream size : 20.9 KiB (0%)
Title : Hebrew
Language : Hebrew
Forced : No
Encoded date : UTC 2022-08-19 05:49:38
Tagged date : UTC 2022-08-19 05:49:39

Text #18
ID : 20
Format : Timed Text
Codec ID : tx3g
Duration : 26 min 30 s
Bit rate mode : Variable
Bit rate : 202 b/s
Frame rate : 0.477 FPS
Stream size : 39.2 KiB (0%)
Title : Hindi
Language : Hindi
Forced : No
Encoded date : UTC 2022-08-19 05:49:38
Tagged date : UTC 2022-08-19 05:49:39

Text #19
ID : 21
Format : Timed Text
Codec ID : tx3g
Duration : 26 min 30 s
Bit rate mode : Variable
Bit rate : 75 b/s
Frame rate : 0.465 FPS
Stream size : 14.6 KiB (0%)
Title : Hungarian
Language : Hungarian
Forced : No
Encoded date : UTC 2022-08-19 05:49:38
Tagged date : UTC 2022-08-19 05:49:39

Text #20
ID : 22
Format : Timed Text
Codec ID : tx3g
Duration : 26 min 30 s
Bit rate mode : Variable
Bit rate : 84 b/s
Frame rate : 0.468 FPS
Stream size : 16.3 KiB (0%)
Title : Indonesian
Language : Indonesian
Forced : No
Encoded date : UTC 2022-08-19 05:49:38
Tagged date : UTC 2022-08-19 05:49:39

Text #21
ID : 23
Format : Timed Text
Codec ID : tx3g
Duration : 26 min 30 s
Bit rate mode : Variable
Bit rate : 85 b/s
Frame rate : 0.470 FPS
Stream size : 16.5 KiB (0%)
Title : Italian
Language : Italian
Forced : No
Encoded date : UTC 2022-08-19 05:49:38
Tagged date : UTC 2022-08-19 05:49:39

Text #22
ID : 24
Format : Timed Text
Codec ID : tx3g
Duration : 26 min 36 s
Bit rate mode : Variable
Bit rate : 70 b/s
Frame rate : 0.482 FPS
Stream size : 13.6 KiB (0%)
Title : Japanese
Language : Japanese
Forced : No
Encoded date : UTC 2022-08-19 05:49:38
Tagged date : UTC 2022-08-19 05:49:39

Text #23
ID : 25
Format : Timed Text
Codec ID : tx3g
Duration : 26 min 30 s
Bit rate mode : Variable
Bit rate : 90 b/s
Frame rate : 0.474 FPS
Stream size : 17.5 KiB (0%)
Title : Korean
Language : Korean
Forced : No
Encoded date : UTC 2022-08-19 05:49:39
Tagged date : UTC 2022-08-19 05:49:39

Text #24
ID : 26
Format : Timed Text
Codec ID : tx3g
Duration : 26 min 30 s
Bit rate mode : Variable
Bit rate : 81 b/s
Frame rate : 0.466 FPS
Stream size : 15.8 KiB (0%)
Title : Latvian
Language : Latvian
Forced : No
Encoded date : UTC 2022-08-19 05:49:39
Tagged date : UTC 2022-08-19 05:49:39

Text #25
ID : 27
Format : Timed Text
Codec ID : tx3g
Duration : 26 min 30 s
Bit rate mode : Variable
Bit rate : 82 b/s
Frame rate : 0.468 FPS
Stream size : 15.9 KiB (0%)
Title : Lithuanian
Language : Lithuanian
Forced : No
Encoded date : UTC 2022-08-19 05:49:39
Tagged date : UTC 2022-08-19 05:49:39

Text #26
ID : 28
Format : Timed Text
Codec ID : tx3g
Duration : 26 min 30 s
Bit rate mode : Variable
Bit rate : 78 b/s
Frame rate : 0.469 FPS
Stream size : 15.1 KiB (0%)
Title : Malay
Language : Malay
Forced : No
Encoded date : UTC 2022-08-19 05:49:39
Tagged date : UTC 2022-08-19 05:49:39

Text #27
ID : 29
Format : Timed Text
Codec ID : tx3g
Duration : 26 min 30 s
Bit rate mode : Variable
Bit rate : 64 b/s
Frame rate : 0.391 FPS
Stream size : 12.5 KiB (0%)
Title : Norwegian
Language : Norwegian
Forced : No
Encoded date : UTC 2022-08-19 05:49:39
Tagged date : UTC 2022-08-19 05:49:39

Text #28
ID : 30
Format : Timed Text
Codec ID : tx3g
Duration : 26 min 30 s
Bit rate mode : Variable
Bit rate : 69 b/s
Frame rate : 0.448 FPS
Stream size : 13.4 KiB (0%)
Title : Polish
Language : Polish
Forced : No
Encoded date : UTC 2022-08-19 05:49:39
Tagged date : UTC 2022-08-19 05:49:39

Text #29
ID : 31
Format : Timed Text
Codec ID : tx3g
Duration : 26 min 30 s
Bit rate mode : Variable
Bit rate : 80 b/s
Frame rate : 0.468 FPS
Stream size : 15.5 KiB (0%)
Title : Portuguese
Language : Portuguese
Forced : No
Encoded date : UTC 2022-08-19 05:49:39
Tagged date : UTC 2022-08-19 05:49:39

Text #30
ID : 32
Format : Timed Text
Codec ID : tx3g
Duration : 26 min 30 s
Bit rate mode : Variable
Bit rate : 64 b/s
Frame rate : 0.473 FPS
Stream size : 12.4 KiB (0%)
Title : Portuguese-BR
Language : Portuguese
Forced : No
Encoded date : UTC 2022-08-19 05:49:39
Tagged date : UTC 2022-08-19 05:49:39

Text #31
ID : 33
Format : Timed Text
Codec ID : tx3g
Duration : 26 min 30 s
Bit rate mode : Variable
Bit rate : 124 b/s
Frame rate : 0.479 FPS
Stream size : 24.1 KiB (0%)
Title : Russian
Language : Russian
Forced : No
Encoded date : UTC 2022-08-19 05:49:39
Tagged date : UTC 2022-08-19 05:49:39

Text #32
ID : 34
Format : Timed Text
Codec ID : tx3g
Duration : 26 min 30 s
Bit rate mode : Variable
Bit rate : 74 b/s
Frame rate : 0.468 FPS
Stream size : 14.5 KiB (0%)
Title : Slovak
Language : Slovak
Forced : No
Encoded date : UTC 2022-08-19 05:49:39
Tagged date : UTC 2022-08-19 05:49:39

Text #33
ID : 35
Format : Timed Text
Codec ID : tx3g
Duration : 26 min 30 s
Bit rate mode : Variable
Bit rate : 63 b/s
Frame rate : 0.430 FPS
Stream size : 12.3 KiB (0%)
Title : Slovenian
Language : Slovenian
Forced : No
Encoded date : UTC 2022-08-19 05:49:39
Tagged date : UTC 2022-08-19 05:49:39

Text #34
ID : 36
Format : Timed Text
Codec ID : tx3g
Duration : 26 min 30 s
Bit rate mode : Variable
Bit rate : 79 b/s
Frame rate : 0.471 FPS
Stream size : 15.3 KiB (0%)
Title : Spanish
Language : Spanish
Forced : No
Encoded date : UTC 2022-08-19 05:49:39
Tagged date : UTC 2022-08-19 05:49:39

Text #35
ID : 37
Format : Timed Text
Codec ID : tx3g
Duration : 26 min 30 s
Bit rate mode : Variable
Bit rate : 83 b/s
Frame rate : 0.484 FPS
Stream size : 16.2 KiB (0%)
Title : Spanish-EU
Language : Spanish
Forced : No
Encoded date : UTC 2022-08-19 05:49:39
Tagged date : UTC 2022-08-19 05:49:39

Text #36
ID : 38
Format : Timed Text
Codec ID : tx3g
Duration : 26 min 30 s
Bit rate mode : Variable
Bit rate : 78 b/s
Frame rate : 0.450 FPS
Stream size : 15.1 KiB (0%)
Title : Swedish
Language : Swedish
Forced : No
Encoded date : UTC 2022-08-19 05:49:39
Tagged date : UTC 2022-08-19 05:49:39

Text #37
ID : 39
Format : Timed Text
Codec ID : tx3g
Duration : 26 min 30 s
Bit rate mode : Variable
Bit rate : 222 b/s
Frame rate : 0.475 FPS
Stream size : 43.1 KiB (0%)
Title : Tamil
Language : Tamil
Forced : No
Encoded date : UTC 2022-08-19 05:49:39
Tagged date : UTC 2022-08-19 05:49:39

Text #38
ID : 40
Format : Timed Text
Codec ID : tx3g
Duration : 26 min 30 s
Bit rate mode : Variable
Bit rate : 222 b/s
Frame rate : 0.475 FPS
Stream size : 43.1 KiB (0%)
Title : Telugu
Language : Telugu
Forced : No
Encoded date : UTC 2022-08-19 05:49:39
Tagged date : UTC 2022-08-19 05:49:39

Text #39
ID : 41
Format : Timed Text
Codec ID : tx3g
Duration : 26 min 30 s
Bit rate mode : Variable
Bit rate : 189 b/s
Frame rate : 0.475 FPS
Stream size : 36.6 KiB (0%)
Title : Thai
Language : Thai
Forced : No
Encoded date : UTC 2022-08-19 05:49:39
Tagged date : UTC 2022-08-19 05:49:39

Text #40
ID : 42
Format : Timed Text
Codec ID : tx3g
Duration : 26 min 30 s
Bit rate mode : Variable
Bit rate : 82 b/s
Frame rate : 0.469 FPS
Stream size : 16.0 KiB (0%)
Title : Turkish
Language : Turkish
Forced : No
Encoded date : UTC 2022-08-19 05:49:39
Tagged date : UTC 2022-08-19 05:49:39

Text #41
ID : 43
Format : Timed Text
Codec ID : tx3g
Duration : 26 min 30 s
Bit rate mode : Variable
Bit rate : 119 b/s
Frame rate : 0.469 FPS
Stream size : 23.1 KiB (0%)
Title : Ukrainian
Language : Ukrainian
Forced : No
Encoded date : UTC 2022-08-19 05:49:39
Tagged date : UTC 2022-08-19 05:49:39

Text #42
ID : 44
Format : Timed Text
Codec ID : tx3g
Duration : 26 min 30 s
Bit rate mode : Variable
Bit rate : 104 b/s
Frame rate : 0.471 FPS
Stream size : 20.1 KiB (0%)
Title : Vietnamese
Language : Vietnamese
Forced : No
Encoded date : UTC 2022-08-19 05:49:39
Tagged date : UTC 2022-08-19 05:49:39
下载地址:

游客,如果您要查看本帖隐藏内容请回复

游客,如果您要查看本帖隐藏内容请回复

游客,如果您要查看本帖隐藏内容请回复

游客,如果您要查看本帖隐藏内容请回复






上一篇:风骚律师 [简繁中字] (2022) 第六季全/4K高清版本下载
下一篇:龙之家族[DIY简繁粤中字](2022)第一季更至07集/4K高清版本下载
回复

使用道具 举报

0

主题

1431

帖子

4113

积分

4K家园VIP

Rank: 9Rank: 9Rank: 9

积分
4113
发表于 2022-8-29 12:23:02 | 显示全部楼层
向楼主学习
回复 支持 反对

使用道具 举报

0

主题

8668

帖子

2万

积分

4K家园VIP

Rank: 9Rank: 9Rank: 9

积分
20210
发表于 2022-8-29 12:44:34 | 显示全部楼层
蘇夫塞德女孩★沖浪女孩4k
回复 支持 反对

使用道具 举报

0

主题

1408

帖子

4086

积分

4K家园VIP

Rank: 9Rank: 9Rank: 9

积分
4086
发表于 2022-9-7 00:08:05 | 显示全部楼层
有空一起交流一下
回复 支持 反对

使用道具 举报

37

主题

1424

帖子

4088

积分

4K家园VIP

Rank: 9Rank: 9Rank: 9

积分
4088
发表于 2022-9-8 07:53:25 | 显示全部楼层
确实不错,顶先
回复 支持 反对

使用道具 举报

2

主题

1409

帖子

4077

积分

4K家园VIP

Rank: 9Rank: 9Rank: 9

积分
4077
发表于 2022-9-11 14:51:21 来自手机 | 显示全部楼层
看着好像不错
回复 支持 反对

使用道具 举报

0

主题

140

帖子

782

积分

4K家园VIP

Rank: 9Rank: 9Rank: 9

积分
782
发表于 2022-9-13 02:04:30 | 显示全部楼层
楼主辛苦了,谢谢楼主,感谢楼主分享,楼主好人一生平安!!!
回复 支持 反对

使用道具 举报

0

主题

140

帖子

782

积分

4K家园VIP

Rank: 9Rank: 9Rank: 9

积分
782
发表于 2022-9-13 02:12:19 | 显示全部楼层
让 江小白 来看看帖子里藏了啥好东西~~~
回复 支持 反对

使用道具 举报

52

主题

1539

帖子

4439

积分

4K家园VIP

Rank: 9Rank: 9Rank: 9

积分
4439
发表于 2022-9-18 04:13:59 来自手机 | 显示全部楼层
路过 帮顶 嘿嘿
回复 支持 反对

使用道具 举报

0

主题

8668

帖子

2万

积分

4K家园VIP

Rank: 9Rank: 9Rank: 9

积分
20210
发表于 2022-9-18 08:46:12 | 显示全部楼层
太好啦&萬分感謝版主的無私發佈分享%
回复 支持 反对

使用道具 举报

您需要登录后才可以回帖 登录 | 立即注册

本版积分规则

精彩图文
Archiver|手机版|TAG|Sitemap|新帖|专题|联系我们:邮箱: 4kjia.com@gmail.com   

4k家园   ©2019