[4K电影] 新铁路少年 / The Railway Children Return (2022) 4K高清版本下载

[复制链接]

2327

主题

2476

帖子

1万

积分

超级版主

Rank: 8Rank: 8

积分
17940
 楼主| 发表于 2022-8-29 20:14:32 | 显示全部楼层 |阅读模式
本帖最后由 最爱4K哟 于 2022-8-30 11:07 编辑

QQ图片20220829200312_副本.png

◎译  名 新铁路少年 / 铁路少年回归
◎片  名 The Railway Children Return
◎年  代 2022
◎产  地 英国
◎类  别 剧情
◎语  言 英语
◎上映日期 2022-04-01(英国)
◎IMDb评分 5.6/10 from 444 users
◎IMDb链接 https://www.imdb.com/title/tt14592998/
◎豆瓣评分 0/10 from 0 users
◎豆瓣链接 https://movie.douban.com/subject/35639984/
◎导  演 摩根·马修斯 Morgan Matthews
◎编  剧 丹尼尔·布罗克赫斯特 Daniel Brocklehurst
◎主  演 珍妮·艾加特 Jenny Agutter
      汤姆·康特奈 Tom Courtenay
      谢里丹·史密斯 Sheridan Smith
      碧悠·加德斯顿 Beau Gadsdon
                  尼尔·赫斯特 Neil Hurst
                  奥斯汀·海恩斯 Austin Haynes
                  杜莫·姆克韦利 Dumo Mkweli
                  乔安妮·詹姆斯 Joanne James  
                  埃利奥特·本 Elliot Benn
                  肯尼斯·艾肯斯 Kenneth Aikens
                  Oscar Wallwork Oscar Wallwork


◎简  介


    跟随一群在第二次世界大战期间被疏散到约克郡一个村庄的儿童,在那里他们遇到了一个像他们一样远离家乡的年轻士兵。

General
Complete name                  : G:\qB下载\The.Railway.Children.Return.2022.2160p.WEB-DL.DD5.1.HDR.H.265-EVO
Format                         : Matroska
Format version                 : Version 4
File size                      : 17.2 GiB
Duration                       : 1 h 38 min
Overall bit rate               : 25.0 Mb/s
Encoded date                   : UTC 2022-08-28 23:32:18
Writing application            : mkvmerge v63.0.0 ('Everything') 64-bit
Writing library                : libebml v1.4.2 + libmatroska v1.6.4

Video
ID                             : 1
Format                         : HEVC
Format/Info                    : High Efficiency Video Coding
Format profile                 : Main 10@L5@High
HDR format                     : SMPTE ST 2086, HDR10 compatible
Codec ID                       : V_MPEGH/ISO/HEVC
Duration                       : 1 h 38 min
Bit rate                       : 24.2 Mb/s
Width                          : 3 836 pixels
Height                         : 1 602 pixels
Display aspect ratio           : 2.40:1
Frame rate mode                : Constant
Frame rate                     : 24.000 FPS
Color space                    : YUV
Chroma subsampling             : 4:2:0 (Type 2)
Bit depth                      : 10 bits
Bits/(Pixel*Frame)             : 0.164
Stream size                    : 16.6 GiB (96%)
Default                        : Yes
Forced                         : No
Color range                    : Limited
Color primaries                : BT.2020
Transfer characteristics       : PQ
Matrix coefficients            : BT.2020 non-constant
Mastering display color primar : BT.2020
Mastering display luminance    : min: 0.0050 cd/m2, max: 1000 cd/m2
Maximum Content Light Level    : 728 cd/m2
Maximum Frame-Average Light Le : 262 cd/m2

Audio
ID                             : 2
Format                         : AC-3
Format/Info                    : Audio Coding 3
Commercial name                : Dolby Digital
Codec ID                       : A_AC3
Duration                       : 1 h 38 min
Bit rate mode                  : Constant
Bit rate                       : 384 kb/s
Channel(s)                     : 6 channels
Channel layout                 : L R C LFE Ls Rs
Sampling rate                  : 48.0 kHz
Frame rate                     : 31.250 FPS (1536 SPF)
Compression mode               : Lossy
Stream size                    : 270 MiB (2%)
Language                       : English
Service kind                   : Complete Main
Default                        : Yes
Forced                         : No

资源速度为零或资源敏感被和谐时,推荐使用qBittorrent等下载软件,有条件的推荐115更好的下载软件!

下载地址:

游客,如果您要查看本帖隐藏内容请回复
游客,如果您要查看本帖隐藏内容请回复

游客,如果您要查看本帖隐藏内容请回复

游客,如果您要查看本帖隐藏内容请回复

游客,如果您要查看本帖隐藏内容请回复

游客,如果您要查看本帖隐藏内容请回复






上一篇:旋转人生 / Spin Me Round (2022) 4K高清版本下载
下一篇:美国狙击手 / American Sniper (2014) 4K高清版本下载
回复

使用道具 举报

1

主题

1618

帖子

4460

积分

4K家园VIP

Rank: 9Rank: 9Rank: 9

积分
4460
发表于 2022-8-29 20:14:37 | 显示全部楼层
不错 支持一个了
回复 支持 反对

使用道具 举报

0

主题

8663

帖子

2万

积分

4K家园VIP

Rank: 9Rank: 9Rank: 9

积分
20189
发表于 2022-8-29 20:45:46 | 显示全部楼层
太好啦&萬分感謝版主的無私發佈分享%
回复 支持 反对

使用道具 举报

0

主题

2

帖子

16

积分

新手上路

Rank: 1

积分
16
发表于 2022-8-29 22:51:05 | 显示全部楼层
谢谢分享
回复

使用道具 举报

37

主题

1423

帖子

4085

积分

4K家园VIP

Rank: 9Rank: 9Rank: 9

积分
4085
发表于 2022-8-30 10:42:12 | 显示全部楼层
楼主呀,,,您太有才了。。。
回复 支持 反对

使用道具 举报

0

主题

475

帖子

2895

积分

注册会员

Rank: 2

积分
2895
发表于 2022-8-30 12:47:34 | 显示全部楼层
谢谢楼主分享
回复 支持 反对

使用道具 举报

2

主题

1409

帖子

4077

积分

4K家园VIP

Rank: 9Rank: 9Rank: 9

积分
4077
发表于 2022-8-31 05:08:56 | 显示全部楼层
额.....这个可以有
回复 支持 反对

使用道具 举报

49

主题

1555

帖子

4497

积分

4K家园VIP

Rank: 9Rank: 9Rank: 9

积分
4497
发表于 2022-8-31 11:01:20 来自手机 | 显示全部楼层
报告!别开枪,我就是路过来看看的。。。
回复 支持 反对

使用道具 举报

0

主题

10

帖子

27

积分

新手上路

Rank: 1

积分
27
发表于 2022-8-31 20:03:53 | 显示全部楼层
我也下个看看
回复 支持 反对

使用道具 举报

6

主题

1236

帖子

3734

积分

4K家园VIP

Rank: 9Rank: 9Rank: 9

积分
3734
发表于 2022-8-31 21:43:40 | 显示全部楼层
多发些资源啊
回复 支持 反对

使用道具 举报

您需要登录后才可以回帖 登录 | 立即注册

本版积分规则

精彩图文
Archiver|手机版|TAG|Sitemap|新帖|专题|联系我们:邮箱: 4kjia.com@gmail.com   

4k家园   ©2019