[4K电影] 吹哨人:美国体操队性侵丑闻追踪 (2014) 4K高清版本下载

[复制链接]

2327

主题

2476

帖子

1万

积分

超级版主

Rank: 8Rank: 8

积分
17940
 楼主| 发表于 2022-8-30 20:45:45 | 显示全部楼层 |阅读模式
QQ图片20220830203116_副本.png

◎译  名 吹哨人:美国体操队性侵丑闻追踪/体操A级丑闻(港/台)
◎片  名 Athlete A
◎年  代 2020
◎产  地 美国
◎类  别 纪录片
◎语  言 英语
◎上映日期 2020-06-24(美国)
◎IMDb评分 7.6/10 from 11066 users 更新 : 2022-08-29
◎IMDb链接 https://www.imdb.com/title/tt11905462/
◎豆瓣评分 8.5/10 from 3540 users
◎豆瓣链接 https://douban.com/subject/34994827/
◎片  长 103分钟
◎导  演 邦尼·科恩 Bonni Cohen / 乔恩·申克 Jon Shenk
◎主  演 杰米·丹茨彻 Jamie Dantzscher
       娜迪亚·科马内奇 Nadia Comaneci
       卡罗利·贝拉 Béla Károlyi
       Mary Lou Retton Mary Lou Retton
       克里·斯特鲁格 Kerri Strug


◎简  介


  《吹哨人:美国体操队性侵丑闻追踪》跟随《印第安纳波利斯星报》记者的脚步,调查全国最著名的奥运机构之一,美国体操协会的性侵指控。两年后,一名奥运会的医生锒铛入狱,美国国会开始追责,数百名事件亲历者纷纷发声。

  这部令人既震惊又振奋的影片揭露了精英体操界残酷的潜规则,同时记录了向机构抗争的律师,以及最重要的 — 那些拒绝保持沉默的勇敢吹哨人。他们与体制抗争,并取得了胜利。

Video
ID : 1
Format : HEVC
Format/Info : High Efficiency Video Coding
Format profile : Main 10@L5@Main
Codec ID : V_MPEGH/ISO/HEVC
Duration : 1 h 44 min
Bit rate : 11.6 Mb/s
Width : 3 840 pixels
Height : 2 160 pixels
Display aspect ratio : 16:9
Frame rate mode : Constant
Frame rate : 23.976 (24000/1001) FPS
Color space : YUV
Chroma subsampling : 4:2:0
Bit depth : 10 bits
Bits/(Pixel*Frame) : 0.058
Stream size : 8.40 GiB (95%)
Default : No
Forced : No
Color range : Limited
Color primaries : BT.709
Transfer characteristics : BT.709
Matrix coefficients : BT.709

Audio
ID : 2
Format : E-AC-3
Format/Info : Enhanced AC-3
Commercial name : Dolby Digital Plus
Codec ID : A_EAC3
Duration : 1 h 44 min
Bit rate mode : Constant
Bit rate : 640 kb/s
Channel(s) : 6 channels
Channel layout : L R C LFE Ls Rs
Sampling rate : 48.0 kHz
Frame rate : 31.250 FPS (1536 SPF)
Compression mode : Lossy
Stream size : 476 MiB (5%)
Language : English
Service kind : Complete Main
Default : No
Forced : No

Text #1
ID : 3
Format : UTF-8
Codec ID : S_TEXT/UTF8
Codec ID/Info : UTF-8 Plain Text
Duration : 1 h 20 min
Bit rate : 21 b/s
Frame rate : 0.026 FPS
Count of elements : 125
Stream size : 12.5 KiB (0%)
Title : Forced
Language : English
Default : No
Forced : Yes

Text #2
ID : 4
Format : UTF-8
Codec ID : S_TEXT/UTF8
Codec ID/Info : UTF-8 Plain Text
Duration : 1 h 39 min
Bit rate : 96 b/s
Frame rate : 0.267 FPS
Count of elements : 1595
Stream size : 70.7 KiB (0%)
Language : English
Default : No
Forced : No

Text #3
ID : 5
Format : UTF-8
Codec ID : S_TEXT/UTF8
Codec ID/Info : UTF-8 Plain Text
Duration : 1 h 40 min
Bit rate : 101 b/s
Frame rate : 0.277 FPS
Count of elements : 1665
Stream size : 74.3 KiB (0%)
Title : SDH
Language : English
Default : No
Forced : No

Text #4
ID : 6
Format : UTF-8
Codec ID : S_TEXT/UTF8
Codec ID/Info : UTF-8 Plain Text
Duration : 1 h 42 min
Bit rate : 86 b/s
Frame rate : 0.251 FPS
Count of elements : 1549
Stream size : 65.3 KiB (0%)
Language : German
Default : No
Forced : No

Text #5
ID : 7
Format : UTF-8
Codec ID : S_TEXT/UTF8
Codec ID/Info : UTF-8 Plain Text
Duration : 1 h 42 min
Bit rate : 200 b/s
Frame rate : 0.258 FPS
Count of elements : 1581
Stream size : 150 KiB (0%)
Language : Thai
Default : No
Forced : No

Text #6
ID : 8
Format : UTF-8
Codec ID : S_TEXT/UTF8
Codec ID/Info : UTF-8 Plain Text
Duration : 1 h 42 min
Bit rate : 85 b/s
Frame rate : 0.245 FPS
Count of elements : 1514
Stream size : 64.4 KiB (0%)
Title : European
Language : Spanish
Default : No
Forced : No

Text #7
ID : 9
Format : UTF-8
Codec ID : S_TEXT/UTF8
Codec ID/Info : UTF-8 Plain Text
Duration : 1 h 42 min
Bit rate : 98 b/s
Frame rate : 0.271 FPS
Count of elements : 1673
Stream size : 74.2 KiB (0%)
Language : Japanese
Default : No
Forced : No

Text #8
ID : 10
Format : UTF-8
Codec ID : S_TEXT/UTF8
Codec ID/Info : UTF-8 Plain Text
Duration : 1 h 42 min
Bit rate : 87 b/s
Frame rate : 0.244 FPS
Count of elements : 1510
Stream size : 65.9 KiB (0%)
Language : Danish
Default : No
Forced : No

Text #9
ID : 11
Format : UTF-8
Codec ID : S_TEXT/UTF8
Codec ID/Info : UTF-8 Plain Text
Duration : 1 h 42 min
Bit rate : 115 b/s
Frame rate : 0.260 FPS
Count of elements : 1606
Stream size : 87.4 KiB (0%)
Language : Vietnamese
Default : No
Forced : No

Text #10
ID : 12
Format : UTF-8
Codec ID : S_TEXT/UTF8
Codec ID/Info : UTF-8 Plain Text
Duration : 1 h 42 min
Bit rate : 82 b/s
Frame rate : 0.237 FPS
Count of elements : 1462
Stream size : 62.1 KiB (0%)
Language : Polish
Default : No
Forced : No

Text #11
ID : 13
Format : UTF-8
Codec ID : S_TEXT/UTF8
Codec ID/Info : UTF-8 Plain Text
Duration : 1 h 42 min
Bit rate : 90 b/s
Frame rate : 0.268 FPS
Count of elements : 1654
Stream size : 67.9 KiB (0%)
Language : Italian
Default : No
Forced : No

Text #12
ID : 14
Format : UTF-8
Codec ID : S_TEXT/UTF8
Codec ID/Info : UTF-8 Plain Text
Duration : 1 h 42 min
Bit rate : 99 b/s
Frame rate : 0.269 FPS
Count of elements : 1660
Stream size : 74.8 KiB (0%)
Language : Korean
Default : No
Forced : No

Text #13
ID : 15
Format : UTF-8
Codec ID : S_TEXT/UTF8
Codec ID/Info : UTF-8 Plain Text
Duration : 1 h 42 min
Bit rate : 137 b/s
Frame rate : 0.267 FPS
Count of elements : 1647
Stream size : 104 KiB (0%)
Language : Arabic
Default : No
Forced : No

Text #14
ID : 16
Format : UTF-8
Codec ID : S_TEXT/UTF8
Codec ID/Info : UTF-8 Plain Text
Duration : 1 h 43 min
Bit rate : 80 b/s
Frame rate : 0.242 FPS
Count of elements : 1497
Stream size : 60.9 KiB (0%)
Language : Dutch
Default : No
Forced : No

Text #15
ID : 17
Format : UTF-8
Codec ID : S_TEXT/UTF8
Codec ID/Info : UTF-8 Plain Text
Duration : 1 h 42 min
Bit rate : 76 b/s
Frame rate : 0.261 FPS
Count of elements : 1609
Stream size : 57.6 KiB (0%)
Title : 中文(简体)
Language : 中文
Default : No
Forced : No


Text #16
ID : 18
Format : UTF-8
Codec ID : S_TEXT/UTF8
Codec ID/Info : UTF-8 Plain Text
Duration : 1 h 42 min
Bit rate : 89 b/s
Frame rate : 0.236 FPS
Count of elements : 1458
Stream size : 67.3 KiB (0%)
Language : Spanish
Default : No
Forced : No

Text #17
ID : 19
Format : UTF-8
Codec ID : S_TEXT/UTF8
Codec ID/Info : UTF-8 Plain Text
Duration : 1 h 42 min
Bit rate : 71 b/s
Frame rate : 0.267 FPS
Count of elements : 1651
Stream size : 54.1 KiB (0%)
Title : 中文(繁体)
Language : 中文
Default : No
Forced : No

Text #18
ID : 20
Format : UTF-8
Codec ID : S_TEXT/UTF8
Codec ID/Info : UTF-8 Plain Text
Duration : 1 h 42 min
Bit rate : 86 b/s
Frame rate : 0.252 FPS
Count of elements : 1558
Stream size : 65.0 KiB (0%)
Language : Swedish
Default : No
Forced : No

Text #19
ID : 21
Format : UTF-8
Codec ID : S_TEXT/UTF8
Codec ID/Info : UTF-8 Plain Text
Duration : 1 h 42 min
Bit rate : 82 b/s
Frame rate : 0.220 FPS
Count of elements : 1360
Stream size : 62.2 KiB (0%)
Language : Norwegian Bokmal
Default : No
Forced : No

Text #20
ID : 22
Format : UTF-8
Codec ID : S_TEXT/UTF8
Codec ID/Info : UTF-8 Plain Text
Duration : 1 h 42 min
Bit rate : 85 b/s
Frame rate : 0.229 FPS
Count of elements : 1415
Stream size : 64.8 KiB (0%)
Language : Czech
Default : No
Forced : No

Text #21
ID : 23
Format : UTF-8
Codec ID : S_TEXT/UTF8
Codec ID/Info : UTF-8 Plain Text
Duration : 1 h 42 min
Bit rate : 80 b/s
Frame rate : 0.249 FPS
Count of elements : 1535
Stream size : 60.6 KiB (0%)
Language : French
Default : No
Forced : No

Text #22
ID : 24
Format : UTF-8
Codec ID : S_TEXT/UTF8
Codec ID/Info : UTF-8 Plain Text
Duration : 1 h 42 min
Bit rate : 86 b/s
Frame rate : 0.264 FPS
Count of elements : 1631
Stream size : 65.3 KiB (0%)
Title : Brazilian
Language : Portuguese
Default : No
Forced : No

Text #23
ID : 25
Format : UTF-8
Codec ID : S_TEXT/UTF8
Codec ID/Info : UTF-8 Plain Text
Duration : 1 h 42 min
Bit rate : 87 b/s
Frame rate : 0.269 FPS
Count of elements : 1661
Stream size : 65.9 KiB (0%)
Language : Indonesian
Default : No
Forced : No

Text #24
ID : 26
Format : UTF-8
Codec ID : S_TEXT/UTF8
Codec ID/Info : UTF-8 Plain Text
Duration : 1 h 42 min
Bit rate : 83 b/s
Frame rate : 0.234 FPS
Count of elements : 1446
Stream size : 63.1 KiB (0%)
Language : Finnish
Default : No
Forced : No

Text #25
ID : 27
Format : UTF-8
Codec ID : S_TEXT/UTF8
Codec ID/Info : UTF-8 Plain Text
Duration : 1 h 42 min
Bit rate : 90 b/s
Frame rate : 0.257 FPS
Count of elements : 1586
Stream size : 68.4 KiB (0%)
Language : Hungarian
Default : No
Forced : No

Text #26
ID : 28
Format : UTF-8
Codec ID : S_TEXT/UTF8
Codec ID/Info : UTF-8 Plain Text
Duration : 1 h 42 min
Bit rate : 88 b/s
Frame rate : 0.250 FPS
Count of elements : 1542
Stream size : 66.8 KiB (0%)
Language : Turkish
Default : No
Forced : No

Text #27
ID : 29
Format : UTF-8
Codec ID : S_TEXT/UTF8
Codec ID/Info : UTF-8 Plain Text
Duration : 1 h 42 min
Bit rate : 150 b/s
Frame rate : 0.266 FPS
Count of elements : 1644
Stream size : 113 KiB (0%)
Language : Greek
Default : No
Forced : No

Text #28
ID : 30
Format : UTF-8
Codec ID : S_TEXT/UTF8
Codec ID/Info : UTF-8 Plain Text
Duration : 1 h 42 min
Bit rate : 88 b/s
Frame rate : 0.222 FPS
Count of elements : 1371
Stream size : 66.6 KiB (0%)
Language : Portuguese
Default : No
Forced : No

Text #29
ID : 31
Format : UTF-8
Codec ID : S_TEXT/UTF8
Codec ID/Info : UTF-8 Plain Text
Duration : 1 h 42 min
Bit rate : 124 b/s
Frame rate : 0.265 FPS
Count of elements : 1637
Stream size : 94.1 KiB (0%)
Language : Hebrew
Default : No
Forced : No

Text #30
ID : 32
Format : UTF-8
Codec ID : S_TEXT/UTF8
Codec ID/Info : UTF-8 Plain Text
Duration : 1 h 42 min
Bit rate : 165 b/s
Frame rate : 0.269 FPS
Count of elements : 1660
Stream size : 125 KiB (0%)
Language : Russian
Default : No
Forced : No

Text #31
ID : 33
Format : UTF-8
Codec ID : S_TEXT/UTF8
Codec ID/Info : UTF-8 Plain Text
Duration : 1 h 42 min
Bit rate : 85 b/s
Frame rate : 0.241 FPS
Count of elements : 1490
Stream size : 64.2 KiB (0%)
Language : Romanian
Default : No
Forced : No
资源速度为零或资源敏感被和谐时,推荐使用qBittorrent等下载软件,有条件的推荐115更好的下载软件!

下载地址:


游客,如果您要查看本帖隐藏内容请回复





上一篇:美国狙击手 / American Sniper (2014) 4K高清版本下载
下一篇:问鼎之声:球场成长日记 [简繁中字] (2021)4K高清版本下载
回复

使用道具 举报

1

主题

1290

帖子

3888

积分

4K家园VIP

Rank: 9Rank: 9Rank: 9

积分
3888
发表于 2022-8-30 20:45:49 来自手机 | 显示全部楼层
鄙视楼下的顶帖没我快,哈哈
回复 支持 反对

使用道具 举报

0

主题

8663

帖子

2万

积分

4K家园VIP

Rank: 9Rank: 9Rank: 9

积分
20189
发表于 2022-8-30 23:58:10 | 显示全部楼层
太好啦&萬分感謝版主的無私發佈分享%
回复 支持 反对

使用道具 举报

0

主题

125

帖子

6122

积分

高级会员

Rank: 3Rank: 3

积分
6122
发表于 2022-8-31 08:45:12 | 显示全部楼层
感謝版主的無私發佈分享
回复 支持 反对

使用道具 举报

39

主题

1537

帖子

4405

积分

4K家园VIP

Rank: 9Rank: 9Rank: 9

积分
4405
发表于 2022-9-3 02:27:55 | 显示全部楼层
非常好,顶一下
回复 支持 反对

使用道具 举报

0

主题

1394

帖子

4016

积分

中级会员

Rank: 4

积分
4016
发表于 2022-9-5 10:30:03 | 显示全部楼层
支持,楼下的跟上哈~
回复 支持 反对

使用道具 举报

0

主题

3

帖子

12

积分

新手上路

Rank: 1

积分
12
发表于 2022-9-6 00:20:58 来自手机 | 显示全部楼层
快看看
回复

使用道具 举报

48

主题

1516

帖子

4366

积分

4K家园VIP

Rank: 9Rank: 9Rank: 9

积分
4366
发表于 2022-9-8 21:03:46 | 显示全部楼层
看着好像不错
回复 支持 反对

使用道具 举报

1

主题

1394

帖子

4024

积分

4K家园VIP

Rank: 9Rank: 9Rank: 9

积分
4024
发表于 2022-9-10 00:14:49 | 显示全部楼层
我是个凑数的。。。
回复 支持 反对

使用道具 举报

您需要登录后才可以回帖 登录 | 立即注册

本版积分规则

精彩图文
Archiver|手机版|TAG|Sitemap|新帖|专题|联系我们:邮箱: 4kjia.com@gmail.com   

4k家园   ©2019