[4K电影] 布赖恩和查尔斯 / Brian and Charles (2022) 4K高清版本下载

[复制链接]

2327

主题

2476

帖子

1万

积分

超级版主

Rank: 8Rank: 8

积分
17940
 楼主| 发表于 2022-8-30 21:10:34 | 显示全部楼层 |阅读模式

103722d1cuuvnzuvcyvdhs.png

◎译  名 布赖恩和查尔斯
◎片  名 Brian and Charles
◎年  代 2022
◎产  地 英国
◎类  别 喜剧
◎语  言 英语
◎上映日期 2022-01-23(圣丹斯电影节)/2022-06-17(美国)
◎IMDb评分 6.7/10 from 2313 users 更新 : 2022-08-27
◎IMDb链接 https://www.imdb.com/title/tt13270424/
◎豆瓣评分 0/10 from 0 users
◎豆瓣链接 https://movie.douban.com/subject/35694760/
◎导  演 吉姆·阿切尔 Jim Archer
◎编  剧 大卫·厄尔 David Earl / 克里斯·海沃德 Chris Hayward
◎主  演 大卫·厄尔 David Earl
       克里斯·海沃德 Chris Hayward
       露易丝·布瑞丽 Louise Brealey
       杰米·米奇 Jamie Michie
       尼娜·索珊娅 Nina Sosanya
       林恩·亨特 Lynn Hunter
       劳里·伊扎德 Lowri Izzard
       马利·伊扎德 Mari Izzard
       卡拉·蔡斯 Cara Chase
       苏尼尔·帕特尔 Sunil Patel
       里希·奈尔 Rishi Nair
       科林·贝内特 Colin Bennett
       薇薇安·索恩 Vivienne Soan
       戴维·爱德华兹 David Edwards
       尼古拉斯·阿斯伯里 Nicholas Asbury
       克里斯·海沃德 Chris Hayward

◎简  介

  生活在威尔士农村的发明家布莱恩每天都在建造一些稀奇古怪、不怎么有用的新奇玩意儿。在孤独中,他用一台洗衣机和其他零碎造出了查尔斯,一个有智能的机器人,它能从字典里学习英语,并对卷心菜非常着迷。

◎获奖情况

  第38届圣丹斯电影节(2022)
  评审团大奖 世界电影单元剧情片(提名)

Video
ID : 1
Format : HEVC
Format/Info : High Efficiency Video Coding
Format profile : Main 10@L5@High
Codec ID : V_MPEGH/ISO/HEVC
Duration : 1 h 31 min
Bit rate : 25.1 Mb/s
Width : 3 840 pixels
Height : 2 160 pixels
Display aspect ratio : 16:9
Frame rate mode : Constant
Frame rate : 23.976 (24000/1001) FPS
Color space : YUV
Chroma subsampling : 4:2:0 (Type 2)
Bit depth : 10 bits
Bits/(Pixel*Frame) : 0.126
Stream size : 16.0 GiB (98%)
Default : Yes
Forced : No
Color range : Limited
Color primaries : BT.709
Transfer characteristics : BT.709
Matrix coefficients : BT.709

Audio
ID : 2
Format : E-AC-3
Format/Info : Enhanced AC-3
Commercial name : Dolby Digital Plus
Codec ID : A_EAC3
Duration : 1 h 31 min
Bit rate mode : Constant
Bit rate : 640 kb/s
Channel(s) : 6 channels
Channel layout : L R C LFE Ls Rs
Sampling rate : 48.0 kHz
Frame rate : 31.250 FPS (1536 SPF)
Compression mode : Lossy
Stream size : 418 MiB (2%)
Language : English
Service kind : Complete Main
Default : Yes
Forced : No

Text #1
ID : 3
Format : UTF-8
Codec ID : S_TEXT/UTF8
Codec ID/Info : UTF-8 Plain Text
Duration : 1 h 30 min
Bit rate : 70 b/s
Frame rate : 0.316 FPS
Count of elements : 1721
Stream size : 46.7 KiB (0%)
Language : English
Default : No
Forced : No

Text #2
ID : 4
Format : UTF-8
Codec ID : S_TEXT/UTF8
Codec ID/Info : UTF-8 Plain Text
Duration : 1 h 30 min
Bit rate : 48 b/s
Frame rate : 0.221 FPS
Count of elements : 1197
Stream size : 32.0 KiB (0%)
Language : Spanish
Default : No
Forced : No


资源速度为零或资源敏感被和谐时,推荐使用qBittorrent等下载软件,有条件的推荐115更好的下载软件!

下载地址:


游客,如果您要查看本帖隐藏内容请回复

游客,如果您要查看本帖隐藏内容请回复


相关其他4K版本链接:布赖恩和查尔斯 / Brian and Charles (2022) 4K高清版本下载




上一篇:博·伯翰:隔离在家 [简繁中字] (2021) 4K高清版本下载
下一篇:乡下人的悲歌 [简繁中字] / Hillbilly Elegy (2020) 4K高清版本下载
回复

使用道具 举报

56

主题

1501

帖子

4359

积分

4K家园VIP

Rank: 9Rank: 9Rank: 9

积分
4359
发表于 2022-8-30 21:10:39 来自手机 | 显示全部楼层
看帖要回,回帖才健康,在踩踩,楼主辛苦了!
回复 支持 反对

使用道具 举报

0

主题

8663

帖子

2万

积分

4K家园VIP

Rank: 9Rank: 9Rank: 9

积分
20189
发表于 2022-8-30 23:56:12 | 显示全部楼层
太好啦&萬分感謝版主的無私發佈分享%
回复 支持 反对

使用道具 举报

0

主题

55

帖子

780

积分

新手上路

Rank: 1

积分
780
发表于 2022-9-3 17:35:05 | 显示全部楼层
看禁闻http://v.ht/tttd 点击访问
回复

使用道具 举报

4

主题

1670

帖子

4610

积分

4K家园VIP

Rank: 9Rank: 9Rank: 9

积分
4610
发表于 3 天前 来自手机 | 显示全部楼层
支持一下楼主发表的内容
回复 支持 反对

使用道具 举报

您需要登录后才可以回帖 登录 | 立即注册

本版积分规则

精彩图文
Archiver|手机版|TAG|Sitemap|新帖|专题|联系我们:邮箱: 4kjia.com@gmail.com   

4k家园   ©2019