[4K电影] 大人物 [简繁中字] / Someone Great (2019) 4K高清版本下载

[复制链接]

2327

主题

2476

帖子

1万

积分

超级版主

Rank: 8Rank: 8

积分
17940
 楼主| 发表于 2022-8-30 21:52:40 | 显示全部楼层 |阅读模式

QQ图片20220830214828_副本.png

◎标  题 大人物
◎译  名 忘情今夜
◎片  名 Someone Great
◎年  代 2019
◎产  地 美国
◎类  别 喜剧 / 爱情
◎语  言 英语
◎上映日期 2019-04-19(美国)
◎IMDb评分 6.1/10 from 22560 users 更新 : 2022-08-29
◎IMDb链接 https://www.imdb.com/title/tt8075260/
◎豆瓣评分 6.6/10 from 2251 users 更新 : 2022-08-30
◎豆瓣链接 https://movie.douban.com/subject/30158840/
◎片  长 92分钟
◎导  演 詹尼弗·凯廷·罗宾逊 Jennifer Kaytin Robinson
◎编  剧 詹尼弗·凯廷·罗宾逊 Jennifer Kaytin Robinson
◎演  员 吉娜·罗德里格兹 Gina Rodriguez
       勒凯斯·斯坦菲尔德 Lakeith Stanfield
       布兰特妮·斯诺 Brittany Snow
       德汪达·怀斯 DeWanda Wise
       蜜雪儿·伯托 Michelle Buteau
       丽贝卡·纳奥米·琼斯 Rebecca Naomi Jones
       亚历克斯·莫法特 Alex Moffat
       乔·洛西塞罗 Joe LoCicero
       彼得·瓦克 Peter Vack
       梅根·海利 Megan Haley
       本·锡德尔 Ben Sidell
       雅布其·杨-怀特 Jaboukie Young-White
       罗莎里奥·道森 Rosario Dawson
       鲁保罗 RuPaul
       托马斯·科帕切 Thomas Kopache
       费斯·洛根 Faith Logan
       曼哈顿·尼夫斯 Manhattan Nieves
       斯塔塞·巴特 Stacey Battat

◎简  介

  珍妮(吉娜·罗德里格兹 Gina Rodriguez 饰)是一名记者,对于自己的这份职业,珍妮拥有着巨大的热情,并且希望能够在这篇领域内做出一番成绩。某日,珍妮收到了一家非常著名的杂志社向自己抛来的橄榄枝,可是,这家杂志社在旧金山,如果珍妮接受了这份工作,也就意味着她将和交往九年的男友内特(勒凯斯·斯坦菲尔德 Lakeith Stanfield 饰)开启一段异地恋情。
最终,珍妮还是义无反顾的决定出发,伤心的内特选择了离她而去。为了一扫失恋的郁闷,珍妮决定和两位闺蜜艾琳(德汪达·怀斯 DeWanda Wise 饰)以及布莱尔(布兰特妮·斯诺 Brittany Snow 饰)一起去纽约狂欢。

Video
ID : 1
Format : HEVC
Format/Info : High Efficiency Video Coding
Format profile : Main 10@L5@Main
Codec ID : V_MPEGH/ISO/HEVC
Duration : 1 h 32 min
Bit rate : 11.5 Mb/s
Width : 3 840 pixels
Height : 2 160 pixels
Display aspect ratio : 16:9
Frame rate mode : Constant
Frame rate : 23.976 (24000/1001) FPS
Color space : YUV
Chroma subsampling : 4:2:0
Bit depth : 10 bits
Bits/(Pixel*Frame) : 0.058
Stream size : 7.41 GiB (95%)
Default : Yes
Forced : No
Color range : Limited
Color primaries : BT.709
Transfer characteristics : BT.709
Matrix coefficients : BT.709

Audio
ID : 2
Format : E-AC-3
Format/Info : Enhanced AC-3
Commercial name : Dolby Digital Plus
Codec ID : A_EAC3
Duration : 1 h 32 min
Bit rate mode : Constant
Bit rate : 640 kb/s
Channel(s) : 6 channels
Channel layout : L R C LFE Ls Rs
Sampling rate : 48.0 kHz
Frame rate : 31.250 FPS (1536 SPF)
Compression mode : Lossy
Stream size : 423 MiB (5%)
Title : English
Language : English
Service kind : Complete Main
Default : Yes
Forced : No

Text #1
ID : 3
Format : UTF-8
Codec ID : S_TEXT/UTF8
Codec ID/Info : UTF-8 Plain Text
Duration : 1 h 30 min
Bit rate : 140 b/s
Frame rate : 0.367 FPS
Count of elements : 1998
Stream size : 93.2 KiB (0%)
Title : English
Language : English
Default : Yes
Forced : No

Text #2
ID : 4
Format : UTF-8
Codec ID : S_TEXT/UTF8
Codec ID/Info : UTF-8 Plain Text
Duration : 1 h 31 min
Bit rate : 119 b/s
Frame rate : 0.291 FPS
Count of elements : 1596
Stream size : 80.4 KiB (0%)
Title : Arabic
Language : Arabic
Default : No
Forced : No

Text #3
ID : 5
Format : UTF-8
Codec ID : S_TEXT/UTF8
Codec ID/Info : UTF-8 Plain Text
Duration : 1 h 31 min
Bit rate : 63 b/s
Frame rate : 0.288 FPS
Count of elements : 1576
Stream size : 42.5 KiB (0%)
Title : 中文(简体)
Language : 中文
Default : No
Forced : No

Text #4
ID : 6
Format : UTF-8
Codec ID : S_TEXT/UTF8
Codec ID/Info : UTF-8 Plain Text
Duration : 1 h 28 min
Bit rate : 79 b/s
Frame rate : 0.301 FPS
Count of elements : 1598
Stream size : 51.3 KiB (0%)
Title : 中文(繁体)
Language : 中文
Default : No
Forced : No


Text #5
ID : 7
Format : UTF-8
Codec ID : S_TEXT/UTF8
Codec ID/Info : UTF-8 Plain Text
Duration : 1 h 28 min
Bit rate : 64 b/s
Frame rate : 0.257 FPS
Count of elements : 1366
Stream size : 41.6 KiB (0%)
Title : Czech
Language : Czech
Default : No
Forced : No

Text #6
ID : 8
Format : UTF-8
Codec ID : S_TEXT/UTF8
Codec ID/Info : UTF-8 Plain Text
Duration : 1 h 28 min
Bit rate : 60 b/s
Frame rate : 0.215 FPS
Count of elements : 1142
Stream size : 39.4 KiB (0%)
Title : Danish
Language : Danish
Default : No
Forced : No

Text #7
ID : 9
Format : UTF-8
Codec ID : S_TEXT/UTF8
Codec ID/Info : UTF-8 Plain Text
Duration : 1 h 27 min
Bit rate : 62 b/s
Frame rate : 0.304 FPS
Count of elements : 1594
Stream size : 40.3 KiB (0%)
Title : Dutch
Language : Dutch
Default : No
Forced : No

Text #8
ID : 10
Format : UTF-8
Codec ID : S_TEXT/UTF8
Codec ID/Info : UTF-8 Plain Text
Duration : 1 h 28 min
Bit rate : 61 b/s
Frame rate : 0.289 FPS
Count of elements : 1535
Stream size : 39.8 KiB (0%)
Title : Finnish
Language : Finnish
Default : No
Forced : No

Text #9
ID : 11
Format : UTF-8
Codec ID : S_TEXT/UTF8
Codec ID/Info : UTF-8 Plain Text
Duration : 1 h 28 min
Bit rate : 67 b/s
Frame rate : 0.290 FPS
Count of elements : 1540
Stream size : 43.6 KiB (0%)
Title : French
Language : French
Default : No
Forced : No

Text #10
ID : 12
Format : UTF-8
Codec ID : S_TEXT/UTF8
Codec ID/Info : UTF-8 Plain Text
Duration : 1 h 28 min
Bit rate : 75 b/s
Frame rate : 0.290 FPS
Count of elements : 1538
Stream size : 48.7 KiB (0%)
Title : German
Language : German
Default : No
Forced : No

Text #11
ID : 13
Format : UTF-8
Codec ID : S_TEXT/UTF8
Codec ID/Info : UTF-8 Plain Text
Duration : 1 h 28 min
Bit rate : 118 b/s
Frame rate : 0.262 FPS
Count of elements : 1392
Stream size : 76.5 KiB (0%)
Title : Greek
Language : Greek
Default : No
Forced : No

Text #12
ID : 14
Format : UTF-8
Codec ID : S_TEXT/UTF8
Codec ID/Info : UTF-8 Plain Text
Duration : 1 h 28 min
Bit rate : 113 b/s
Frame rate : 0.301 FPS
Count of elements : 1598
Stream size : 73.4 KiB (0%)
Title : Hebrew
Language : Hebrew
Default : No
Forced : No

Text #13
ID : 15
Format : UTF-8
Codec ID : S_TEXT/UTF8
Codec ID/Info : UTF-8 Plain Text
Duration : 1 h 28 min
Bit rate : 64 b/s
Frame rate : 0.283 FPS
Count of elements : 1503
Stream size : 41.5 KiB (0%)
Title : Hungarian
Language : Hungarian
Default : No
Forced : No

Text #14
ID : 16
Format : UTF-8
Codec ID : S_TEXT/UTF8
Codec ID/Info : UTF-8 Plain Text
Duration : 1 h 28 min
Bit rate : 67 b/s
Frame rate : 0.272 FPS
Count of elements : 1445
Stream size : 43.5 KiB (0%)
Title : Indonesian
Language : Indonesian
Default : No
Forced : No

Text #15
ID : 17
Format : UTF-8
Codec ID : S_TEXT/UTF8
Codec ID/Info : UTF-8 Plain Text
Duration : 1 h 28 min
Bit rate : 64 b/s
Frame rate : 0.283 FPS
Count of elements : 1502
Stream size : 41.5 KiB (0%)
Title : Italian
Language : Italian
Default : No
Forced : No

Text #16
ID : 18
Format : UTF-8
Codec ID : S_TEXT/UTF8
Codec ID/Info : UTF-8 Plain Text
Duration : 1 h 28 min
Bit rate : 56 b/s
Frame rate : 0.294 FPS
Count of elements : 1564
Stream size : 36.7 KiB (0%)
Title : Japanese
Language : Japanese
Default : No
Forced : No

Text #17
ID : 19
Format : UTF-8
Codec ID : S_TEXT/UTF8
Codec ID/Info : UTF-8 Plain Text
Duration : 1 h 28 min
Bit rate : 82 b/s
Frame rate : 0.291 FPS
Count of elements : 1547
Stream size : 53.7 KiB (0%)
Title : Korean
Language : Korean
Default : No
Forced : No

Text #18
ID : 20
Format : UTF-8
Codec ID : S_TEXT/UTF8
Codec ID/Info : UTF-8 Plain Text
Duration : 1 h 28 min
Bit rate : 67 b/s
Frame rate : 0.287 FPS
Count of elements : 1525
Stream size : 43.8 KiB (0%)
Title : Norwegian Bokmal
Language : Norwegian Bokmal
Default : No
Forced : No

Text #19
ID : 21
Format : UTF-8
Codec ID : S_TEXT/UTF8
Codec ID/Info : UTF-8 Plain Text
Duration : 1 h 28 min
Bit rate : 55 b/s
Frame rate : 0.257 FPS
Count of elements : 1364
Stream size : 35.8 KiB (0%)
Title : Polish
Language : Polish
Default : No
Forced : No

Text #20
ID : 22
Format : UTF-8
Codec ID : S_TEXT/UTF8
Codec ID/Info : UTF-8 Plain Text
Duration : 1 h 28 min
Bit rate : 71 b/s
Frame rate : 0.297 FPS
Count of elements : 1578
Stream size : 46.5 KiB (0%)
Title : Portuguese
Language : Portuguese
Default : No
Forced : No

Text #21
ID : 23
Format : UTF-8
Codec ID : S_TEXT/UTF8
Codec ID/Info : UTF-8 Plain Text
Duration : 1 h 28 min
Bit rate : 62 b/s
Frame rate : 0.271 FPS
Count of elements : 1438
Stream size : 40.3 KiB (0%)
Title : Brazilian Portuguese
Language : Portuguese
Default : No
Forced : No

Text #22
ID : 24
Format : UTF-8
Codec ID : S_TEXT/UTF8
Codec ID/Info : UTF-8 Plain Text
Duration : 1 h 27 min
Bit rate : 76 b/s
Frame rate : 0.291 FPS
Count of elements : 1525
Stream size : 48.9 KiB (0%)
Title : Romanian
Language : Romanian
Default : No
Forced : No

Text #23
ID : 25
Format : UTF-8
Codec ID : S_TEXT/UTF8
Codec ID/Info : UTF-8 Plain Text
Duration : 1 h 28 min
Bit rate : 121 b/s
Frame rate : 0.296 FPS
Count of elements : 1572
Stream size : 78.8 KiB (0%)
Title : Russian
Language : Russian
Default : No
Forced : No

Text #24
ID : 26
Format : UTF-8
Codec ID : S_TEXT/UTF8
Codec ID/Info : UTF-8 Plain Text
Duration : 1 h 28 min
Bit rate : 65 b/s
Frame rate : 0.280 FPS
Count of elements : 1488
Stream size : 42.4 KiB (0%)
Title : Spanish
Language : Spanish
Default : No
Forced : No

Text #25
ID : 27
Format : UTF-8
Codec ID : S_TEXT/UTF8
Codec ID/Info : UTF-8 Plain Text
Duration : 1 h 28 min
Bit rate : 57 b/s
Frame rate : 0.294 FPS
Count of elements : 1561
Stream size : 37.2 KiB (0%)
Title : European Spanish
Language : Spanish
Default : No
Forced : No

Text #26
ID : 28
Format : UTF-8
Codec ID : S_TEXT/UTF8
Codec ID/Info : UTF-8 Plain Text
Duration : 1 h 27 min
Bit rate : 55 b/s
Frame rate : 0.291 FPS
Count of elements : 1527
Stream size : 35.7 KiB (0%)
Title : Swedish
Language : Swedish
Default : No
Forced : No

Text #27
ID : 29
Format : UTF-8
Codec ID : S_TEXT/UTF8
Codec ID/Info : UTF-8 Plain Text
Duration : 1 h 28 min
Bit rate : 188 b/s
Frame rate : 0.297 FPS
Count of elements : 1578
Stream size : 122 KiB (0%)
Title : Thai
Language : Thai
Default : No
Forced : No

Text #28
ID : 30
Format : UTF-8
Codec ID : S_TEXT/UTF8
Codec ID/Info : UTF-8 Plain Text
Duration : 1 h 28 min
Bit rate : 71 b/s
Frame rate : 0.287 FPS
Count of elements : 1525
Stream size : 46.5 KiB (0%)
Title : Turkish
Language : Turkish
Default : No
Forced : No

Text #29
ID : 31
Format : UTF-8
Codec ID : S_TEXT/UTF8
Codec ID/Info : UTF-8 Plain Text
Duration : 1 h 28 min
Bit rate : 104 b/s
Frame rate : 0.295 FPS
Count of elements : 1567
Stream size : 67.9 KiB (0%)
Title : Vietnamese
Language : Vietnamese
Default : No
Forced : No

资源速度为零或资源敏感被和谐时,推荐使用qBittorrent等下载软件,有条件的推荐115更好的下载软件!

下载地址:


游客,如果您要查看本帖隐藏内容请回复





上一篇:为了所有的女孩 [简繁中字] /I Am All Girls (2021) 4K高清版本下载
下一篇:招魂 / The Conjuring (2013) 4K高清版本下载
回复

使用道具 举报

0

主题

1615

帖子

4429

积分

4K家园VIP

Rank: 9Rank: 9Rank: 9

积分
4429
发表于 2022-8-30 21:52:44 | 显示全部楼层
前排支持下
回复 支持 反对

使用道具 举报

0

主题

8663

帖子

2万

积分

4K家园VIP

Rank: 9Rank: 9Rank: 9

积分
20189
发表于 2022-8-30 23:57:19 | 显示全部楼层
太好啦&萬分感謝版主的無私發佈分享%
回复 支持 反对

使用道具 举报

0

主题

1

帖子

8

积分

新手上路

Rank: 1

积分
8
发表于 2022-8-31 01:19:21 | 显示全部楼层
以为是包贝尔那个版本
回复 支持 反对

使用道具 举报

0

主题

4

帖子

21

积分

新手上路

Rank: 1

积分
21
发表于 2022-9-1 11:45:41 | 显示全部楼层
好片!!这么快就有资源了。
回复 支持 反对

使用道具 举报

1

主题

1759

帖子

4885

积分

4K家园VIP

Rank: 9Rank: 9Rank: 9

积分
4885
发表于 2022-9-5 07:21:11 | 显示全部楼层
怎么这么大,希望我电视能看啊
回复 支持 反对

使用道具 举报

2

主题

1412

帖子

4258

积分

4K家园VIP

Rank: 9Rank: 9Rank: 9

积分
4258
发表于 2022-9-6 09:17:51 | 显示全部楼层
这么强,支持楼主,佩服
回复 支持 反对

使用道具 举报

1

主题

1280

帖子

3858

积分

4K家园VIP

Rank: 9Rank: 9Rank: 9

积分
3858
发表于 2022-9-12 16:20:53 | 显示全部楼层
支持,楼下的跟上哈~
回复 支持 反对

使用道具 举报

1

主题

1370

帖子

4138

积分

4K家园VIP

Rank: 9Rank: 9Rank: 9

积分
4138
发表于 2022-9-24 05:41:36 | 显示全部楼层
非常好,顶一下
回复 支持 反对

使用道具 举报

您需要登录后才可以回帖 登录 | 立即注册

本版积分规则

精彩图文
Archiver|手机版|TAG|Sitemap|新帖|专题|联系我们:邮箱: 4kjia.com@gmail.com   

4k家园   ©2019