[4K电影] 探险者 / Explorer (2022) 4K高清版本下载

[复制链接]

2327

主题

2476

帖子

1万

积分

超级版主

Rank: 8Rank: 8

积分
17940
 楼主| 发表于 2022-8-31 21:05:12 | 显示全部楼层 |阅读模式
本帖最后由 最爱4K哟 于 2022-8-31 21:08 编辑

QQ图片20220830222604_副本.png

◎译  名 探险者
◎片  名 Explorer
◎年  代 2020
◎产  地 英国
◎类  别 纪录片
◎语  言 英语
◎上映日期 2022-07-14 (英国)
◎IMDb评分 7.5/10 from 22 users 更新 : 2022-08-31
◎IMDb链接 https://www.imdb.com/title/tt17413020/
◎片  长 113分钟
◎导  演 马修·戴斯 Matthew Dyas
◎主  演 拉努尔夫·费因斯 Ranulph Fiennes
                   安东·鲍林 Anton Bowring

◎简  介

          “世界上最伟大的在世探险家”拉努尔夫·费因斯爵士的肖像,这部电影超越了破纪录的成就,探索了神话背后的人。

Video
ID : 1
Format : HEVC
Format/Info : High Efficiency Video Coding
Format profile : Main 10@L5@High
Codec ID : V_MPEGH/ISO/HEVC
Duration : 1 h 53 min
Bit rate : 20.3 Mb/s
Width : 3 828 pixels
Height : 2 064 pixels
Display aspect ratio : 1.85:1
Frame rate mode : Constant
Frame rate : 25.000 FPS
Color space : YUV
Chroma subsampling : 4:2:0
Bit depth : 10 bits
Bits/(Pixel*Frame) : 0.103
Stream size : 16.0 GiB (98%)
Default : Yes
Forced : No
Color range : Limited
Color primaries : BT.709
Transfer characteristics : BT.709
Matrix coefficients : BT.709

Audio
ID : 2
Format : AC-3
Format/Info : Audio Coding 3
Commercial name : Dolby Digital
Codec ID : A_AC3
Duration : 1 h 53 min
Bit rate mode : Constant
Bit rate : 384 kb/s
Channel(s) : 6 channels
Channel layout : L R C LFE Ls Rs
Sampling rate : 48.0 kHz
Frame rate : 31.250 FPS (1536 SPF)
Compression mode : Lossy
Stream size : 311 MiB (2%)
Language : English
Service kind : Complete Main
Default : Yes
Forced : No

Text #1
ID : 3
Format : UTF-8
Codec ID : S_TEXT/UTF8
Codec ID/Info : UTF-8 Plain Text
Duration : 1 h 45 min
Bit rate : 1 b/s
Frame rate : 0.005 FPS
Count of elements : 31
Stream size : 1.31 KiB (0%)
Title : English Forced
Language : English
Default : Yes
Forced : Yes

Text #2
ID : 4
Format : UTF-8
Codec ID : S_TEXT/UTF8
Codec ID/Info : UTF-8 Plain Text
Duration : 1 h 50 min
Bit rate : 70 b/s
Frame rate : 0.231 FPS
Count of elements : 1535
Stream size : 57.5 KiB (0%)
Title : English CC
Language : English
Default : No
Forced : No

Text #3
ID : 5
Format : UTF-8
Codec ID : S_TEXT/UTF8
Codec ID/Info : UTF-8 Plain Text
Duration : 1 h 51 min
Bit rate : 62 b/s
Frame rate : 0.168 FPS
Count of elements : 1124
Stream size : 50.7 KiB (0%)
Title : Danish
Language : Danish
Default : No
Forced : No

Text #4
ID : 6
Format : UTF-8
Codec ID : S_TEXT/UTF8
Codec ID/Info : UTF-8 Plain Text
Duration : 1 h 51 min
Bit rate : 69 b/s
Frame rate : 0.205 FPS
Count of elements : 1368
Stream size : 56.7 KiB (0%)
Title : German
Language : German
Default : No
Forced : No

Text #5
ID : 7
Format : UTF-8
Codec ID : S_TEXT/UTF8
Codec ID/Info : UTF-8 Plain Text
Duration : 1 h 51 min
Bit rate : 69 b/s
Frame rate : 0.207 FPS
Count of elements : 1382
Stream size : 56.7 KiB (0%)
Title : Spanish European
Language : Spanish
Default : No
Forced : No

Text #6
ID : 8
Format : UTF-8
Codec ID : S_TEXT/UTF8
Codec ID/Info : UTF-8 Plain Text
Duration : 1 h 51 min
Bit rate : 59 b/s
Frame rate : 0.172 FPS
Count of elements : 1147
Stream size : 48.2 KiB (0%)
Title : Finnish
Language : Finnish
Default : No
Forced : No

Text #7
ID : 9
Format : UTF-8
Codec ID : S_TEXT/UTF8
Codec ID/Info : UTF-8 Plain Text
Duration : 1 h 51 min
Bit rate : 70 b/s
Frame rate : 0.207 FPS
Count of elements : 1383
Stream size : 57.6 KiB (0%)
Title : French European
Language : French
Default : No
Forced : No

Text #8
ID : 10
Format : UTF-8
Codec ID : S_TEXT/UTF8
Codec ID/Info : UTF-8 Plain Text
Duration : 1 h 51 min
Bit rate : 67 b/s
Frame rate : 0.206 FPS
Count of elements : 1370
Stream size : 55.1 KiB (0%)
Title : Italian
Language : Italian
Default : No
Forced : No

Text #9
ID : 11
Format : UTF-8
Codec ID : S_TEXT/UTF8
Codec ID/Info : UTF-8 Plain Text
Duration : 1 h 51 min
Bit rate : 71 b/s
Frame rate : 0.199 FPS
Count of elements : 1328
Stream size : 58.5 KiB (0%)
Title : Dutch
Language : Dutch
Default : No
Forced : No

Text #10
ID : 12
Format : UTF-8
Codec ID : S_TEXT/UTF8
Codec ID/Info : UTF-8 Plain Text
Duration : 1 h 51 min
Bit rate : 63 b/s
Frame rate : 0.200 FPS
Count of elements : 1335
Stream size : 51.7 KiB (0%)
Title : Norwegian
Language : Norwegian
Default : No
Forced : No

Text #11
ID : 13
Format : UTF-8
Codec ID : S_TEXT/UTF8
Codec ID/Info : UTF-8 Plain Text
Duration : 1 h 51 min
Bit rate : 64 b/s
Frame rate : 0.205 FPS
Count of elements : 1370
Stream size : 52.5 KiB (0%)
Title : Polish
Language : Polish
Default : No
Forced : No

Menu
00:00:00.000 : en:Chapter 01
00:04:03.880 : en:Chapter 02
00:17:21.760 : en:Chapter 03
00:31:01.240 : en:Chapter 04
00:46:00.440 : en:Chapter 05
01:00:53.080 : en:Chapter 06
01:13:08.200 : en:Chapter 07
01:31:18.520 : en:Chapter 08
01:45:12.800 : en:Chapter 09
01:51:32.640 : en:Chapter 10

资源速度为零或资源敏感被和谐时,推荐使用qBittorrent等下载软件,有条件的推荐115更好的下载软件!

下载地址:


游客,如果您要查看本帖隐藏内容请回复

游客,如果您要查看本帖隐藏内容请回复




上一篇:监视资本主义:智能陷阱 [简繁中字] (2020) 4K高清版本下载
下一篇:人生七部曲 / The Meaning of Life (1983) 4K高清版本下载
回复

使用道具 举报

39

主题

1493

帖子

4275

积分

4K家园VIP

Rank: 9Rank: 9Rank: 9

积分
4275
发表于 2022-8-31 21:05:18 | 显示全部楼层
不错 支持一个了
回复 支持 反对

使用道具 举报

2

主题

1433

帖子

4119

积分

4K家园VIP

Rank: 9Rank: 9Rank: 9

积分
4119
发表于 2022-8-31 21:07:02 | 显示全部楼层
差评
回复 支持 反对

使用道具 举报

51

主题

1542

帖子

4432

积分

4K家园VIP

Rank: 9Rank: 9Rank: 9

积分
4432
发表于 2022-8-31 21:11:24 来自手机 | 显示全部楼层
一直在看
回复 支持 反对

使用道具 举报

4

主题

1438

帖子

4150

积分

中级会员

Rank: 4

积分
4150
发表于 2022-8-31 21:19:54 来自手机 | 显示全部楼层
众里寻他千百度,蓦然回首在这里!
回复 支持 反对

使用道具 举报

0

主题

8663

帖子

2万

积分

4K家园VIP

Rank: 9Rank: 9Rank: 9

积分
20189
发表于 2022-8-31 21:21:56 | 显示全部楼层
太好啦&萬分感謝版主的無私發佈分享%
回复 支持 反对

使用道具 举报

1

主题

1394

帖子

4024

积分

4K家园VIP

Rank: 9Rank: 9Rank: 9

积分
4024
发表于 2022-8-31 21:42:48 来自手机 | 显示全部楼层
看起来好像不错的样子
回复 支持 反对

使用道具 举报

您需要登录后才可以回帖 登录 | 立即注册

本版积分规则

精彩图文
Archiver|手机版|TAG|Sitemap|新帖|专题|联系我们:邮箱: 4kjia.com@gmail.com   

4k家园   ©2019