龙之家族[DIY简繁粤中字](2022)第一季更至07集/4K高清版本下载

  [复制链接]

205

主题

228

帖子

2261

积分

版主

Rank: 7Rank: 7Rank: 7

积分
2261
 楼主| 发表于 2022-9-1 11:18:34 | 显示全部楼层 |阅读模式
本帖最后由 美剧小虾 于 2022-10-3 12:20 编辑

7fc88325894ac26c40fca685691bef7d_副本.jpg

◎译  名 龙之家族/龙族/权力的游戏前传:龙族/权力的游戏衍生剧:龙族/坦格利安/龙王家族/权力的游戏:龙之堡/Fire & Blood
◎片  名 House of the Dragon
◎年  代 2022
◎产  地 美国
◎类  别 剧情/动作/爱情/奇幻/冒险
◎语  言 英语
◎上映日期 2022-08-21(美国)
◎IMDb评分 8.9/10 from 67220 users 更新 : 2022-09-01
◎IMDb链接 https://www.imdb.com/title/tt11198330/
◎豆瓣评分 8.7/10 from 13172 users 更新 : 2022-09-01
◎豆瓣链接 https://movie.douban.com/subject/34825964/
◎集  数 10
◎片  长 60分钟
◎导  演 米格尔·萨普什尼克 Miguel Sapochnik
       格雷格·艾坦尼斯 Greg Yaitanes
       克莱尔·基尔纳 Clare Kilner
       格塔·帕特尔 Geeta Patel
◎编  剧 莱恩·康道尔 Ryan Condal
       萨拉·海斯 Sara Hess
       查梅樱·德·格兰特 Charmaine De Grate
       乔治·马丁 George R.R. Martin
◎主  演 帕迪·康斯戴恩 Paddy Considine
      马特·史密斯 Matt Smith
      米莉·阿尔柯克 Milly Alcock
      艾玛·达西 Emma D'Arcy
      瑞斯·伊凡斯 Rhys Ifans
      奥利维亚·库克 Olivia Cooke
      史蒂夫·图森特 Steve Toussaint
      伊芙·贝斯特 Eve Best
      水野索诺娅 Sonoya Mizuno
      法比安·弗兰克尔 Fabien Frankel
      艾米丽·凯里 Emily Carey
      格拉汉姆·麦克泰维什 Graham McTavish
      瑞安·柯尔 Ryan Corr
      珊·布鲁克 Sian Brooke
      杰佛逊·豪尔 Jefferson Hall
      大卫·霍罗维奇 David Horovitch
      马修·尼达姆 Matthew Needham
      比尔·帕特森 Bill Paterson
      加文·斯派克 Gavin Spokes
      斯特凡·罗德里 Steffan Rhodri
      艾略特·提特恩索 Elliott Tittensor
      加里·库珀 Garry Cooper
      朱利安·刘易斯·琼斯 Julian Lewis Jones
      大卫·豪恩斯洛 David Hounslow
      弗兰基·威尔森 Frankie Wilson
      米哈伊尔·森 Mikhail Sen
      瑞斯·派瑞·琼斯 Rhys Parry Jones
      卢克·蒂滕索尔 Luke Tittensor
      加里·雷蒙德 Gary Raymond
      安德鲁·比克内尔 Andrew Bicknell
      戴维·坎恩 David Cann
      米尔亚姆·格尔曼 Mirjam Germann
      马修·卡弗 Matthew Carver
      阿丽克西斯·拉本 Alexis Raben
      安东尼·弗拉纳根 Anthony Flanagan
      毕扬·丹斯曼 Bijan Daneshmand
      罗茜·伊德 Rosie Ede
      汤姆·格林-卡尼 Tom Glynn-Carney
      伊万·米切尔 Ewan Mitchell
      约翰·麦克米兰 John MacMillan
      贝塔尼·安东尼亚 Bethany Antonia
      米迦勒·卡特 Michael Carter
      萨凡纳·斯泰恩 Savannah Steyn
      哈利·柯勒特 Harry Collett
      威尔·约翰逊 Wil Johnson
      汉娜·弗林 Hannah Flynn
      索尔·内特 Theo Nate
      Afolabi Alli Afolabi Alli
      马丁·波特洛克 Martin Portlock
      詹姆斯·伯克里 James Berkery


◎简  介


  本剧改编自乔治·马丁的《血与火》,背景为《权力的游戏》涉及事件的200年前,聚焦坦格利安家族。故事将讲述坦格利安家族的衰落,以及被称之为“血龙狂舞”的家族内战。
DIY简繁中字 信息

Complete name                  : G:\qB下载\[4Kjia独享资源] 龙之家族 [DIY简繁中字] House.of.the.Dragon.S01E04.2160p.HMAX.WEB-DL.DDP5.1.Atmos.DV.MP4.x265-ALANG\
Format                         : Matroska
Format version                 : Version 4
File size                      : 8.08 GiB
Duration                       : 1 h 2 min
Overall bit rate               : 18.5 Mb/s
Encoded date                   : UTC 2022-09-12 05:12:21
Writing application            : mkvmerge v68.0.0 ('The Curtain') 64-bit
Writing library                : libebml v1.4.2 + libmatroska v1.6.4

Video
ID                             : 1
Format                         : HEVC
Format/Info                    : High Efficiency Video Coding
Format profile                 : Main 10@L5@Main
HDR format                     : Dolby Vision, Version 1.0, dvhe.05.06, BL+RPU
Codec ID                       : V_MPEGH/ISO/HEVC
Duration                       : 1 h 2 min
Bit rate                       : 17.7 Mb/s
Width                          : 3 840 pixels
Height                         : 2 160 pixels
Display aspect ratio           : 16:9
Frame rate mode                : Constant
Frame rate                     : 23.976 (24000/1001) FPS
Color space                    : YUV
Chroma subsampling             : 4:2:0
Bit depth                      : 10 bits
Bits/(Pixel*Frame)             : 0.089
Stream size                    : 7.74 GiB (96%)
Writing library                : x265 3.4hy:[Linux][GCC 7.5.0][64 bit] 10bit
Encoding settings              : cpuid=1111039 / frame-threads=6 / no-wpp / no-pmode / no-pme / no-psnr / no-ssim / log-level=2 / input-csp=1 / input-res=3840x2160 / interlace=0 / total-frames=0 / level-idc=0 / high-tier=1 / uhd-bd=0 / ref=4 / no-allow-non-conformance / repeat-headers / annexb / aud / hrd / info / hash=0 / no-temporal-layers / no-open-gop / min-keyint=96 / keyint=96 / gop-lookahead=0 / bframes=4 / b-adapt=2 / b-pyramid / bframe-bias=0 / rc-lookahead=25 / lookahead-slices=4 / scenecut=40 / hist-scenecut=0 / radl=0 / no-splice / no-intra-refresh / ctu=64 / min-cu-size=8 / rect / no-amp / max-tu-size=32 / tu-inter-depth=1 / tu-intra-depth=1 / limit-tu=0 / rdoq-level=2 / dynamic-rd=0.00 / no-ssim-rd / signhide / no-tskip / nr-intra=0 / nr-inter=0 / no-constrained-intra / strong-intra-smoothing / max-merge=3 / limit-refs=3 / limit-modes / me=3 / subme=3 / merange=57 / temporal-mvp / no-frame-dup / no-hme / weightp / no-weightb / no-analyze-src-pics / deblock=0:0 / sao / no-sao-non-deblock / rd=4 / selective-sao=4 / no-early-skip / rskip / no-fast-intra / no-tskip-fast / no-cu-lossless / no-b-intra / no-splitrd-skip / rdpenalty=0 / psy-rd=2.00 / psy-rdoq=1.00 / no-rd-refine / no-lossless / cbqpoffs=0 / crqpoffs=3 / rc=abr / bitrate=18000 / qcomp=0.60 / qpstep=4 / stats-write=0 / stats-read=2 / cplxblur=20.0 / qblur=0.5 / vbv-maxrate=24500 / vbv-bufsize=24500 / vbv-init=0.6 / vbv-end=0.6 / vbv-end-fr-adj=0.0 / ipratio=1.40 / pbratio=1.30 / aq-mode=2 / aq-strength=1.00 / cutree / zone-count=0 / no-strict-cbr / qg-size=32 / no-rc-grain / qpmax=69 / qpmin=0 / no-const-vbv / sar=1 / overscan=0 / videoformat=5 / range=1 / colorprim=2 / transfer=2 / colormatrix=2 / chromaloc=0 / display-window=0 / cll=0,0 / min-luma=0 / max-luma=1023 / log2-max-poc-lsb=8 / vui-timing-info / vui-hrd-info / no-concatenation / slices=1 / no-opt-qp-pps / no-opt-ref-list-length-pps / no-multi-pass-opt-rps / scenecut-bias=0.05 / hist-threshold=0.01 / no-opt-cu-delta-qp / no-aq-motion / no-hdr10 / no-hdr10-opt / no-dhdr10-opt / no-idr-recovery-sei / analysis-reuse-level=0 / analysis-save-reuse-level=0 / analysis-load-reuse-level=0 / scale-factor=0 / refine-intra=0 / refine-inter=0 / refine-mv=1 / refine-ctu-distortion=0 / no-limit-sao / ctu-info=0 / no-lowpass-dct / refine-analysis-type=0 / copy-pic=1 / max-ausize-factor=1.0 / no-dynamic-refine / no-single-sei / no-hevc-aq / no-svt / no-field / qp-adaptation-range=1.00 / no-scenecut-aware-qpconformance-window-offsets / right=0 / bottom=0 / decoder-max-rate=0
Default                        : Yes
Forced                         : No
Color range                    : Full

Audio
ID                             : 2
Format                         : E-AC-3 JOC
Format/Info                    : Enhanced AC-3 with Joint Object Coding
Commercial name                : Dolby Digital Plus with Dolby Atmos
Codec ID                       : A_EAC3
Duration                       : 1 h 2 min
Bit rate mode                  : Constant
Bit rate                       : 768 kb/s
Channel(s)                     : 6 channels
Channel layout                 : L R C LFE Ls Rs
Sampling rate                  : 48.0 kHz
Frame rate                     : 31.250 FPS (1536 SPF)
Compression mode               : Lossy
Stream size                    : 343 MiB (4%)
Language                       : English
Service kind                   : Complete Main
Default                        : Yes
Forced                         : No
Complexity index               : 16
Number of dynamic objects      : 15
Bed channel count              : 1 channel
Bed channel configuration      : LFE

Text #1
ID                             : 3
Format                         : UTF-8
Codec ID                       : S_TEXT/UTF8
Codec ID/Info                  : UTF-8 Plain Text
Duration                       : 59 min 40 s
Bit rate                       : 34 b/s
Frame rate                     : 0.143 FPS
Count of elements              : 511
Stream size                    : 15.0 KiB (0%)
Title                          : 中文(简体)
Language                       : Chinese
Default                        : Yes
Forced                         : No

Text #2
ID                             : 4
Format                         : UTF-8
Codec ID                       : S_TEXT/UTF8
Codec ID/Info                  : UTF-8 Plain Text
Duration                       : 59 min 40 s
Bit rate                       : 74 b/s
Frame rate                     : 0.143 FPS
Count of elements              : 511
Stream size                    : 32.4 KiB (0%)
Title                          : 中文(简体)& 英文
Language                       : Chinese
Default                        : Yes
Forced                         : No

Text #3
ID                             : 5
Format                         : UTF-8
Codec ID                       : S_TEXT/UTF8
Codec ID/Info                  : UTF-8 Plain Text
Duration                       : 59 min 40 s
Bit rate                       : 34 b/s
Frame rate                     : 0.143 FPS
Count of elements              : 511
Stream size                    : 15.0 KiB (0%)
Title                          : 中文(繁体)
Language                       : Chinese
Default                        : Yes
Forced                         : No

Text #4
ID                             : 6
Format                         : UTF-8
Codec ID                       : S_TEXT/UTF8
Codec ID/Info                  : UTF-8 Plain Text
Duration                       : 59 min 40 s
Bit rate                       : 74 b/s
Frame rate                     : 0.143 FPS
Count of elements              : 511
Stream size                    : 32.4 KiB (0%)
Title                          : 中文(繁体)& 英文
Language                       : Chinese
Default                        : Yes
Forced                         : No



  • Video
ID : 1
Format : HEVC
Format/Info : High Efficiency Video Coding
Format profile : Main 10@L5@High
Codec ID : V_MPEGH/ISO/HEVC
Duration : 1 h 5 min
Bit rate : 12.8 Mb/s
Width : 3 840 pixels
Height : 2 160 pixels
Display aspect ratio : 16:9
Frame rate mode : Constant
Frame rate : 23.976 (24000/1001) FPS
Color space : YUV
Chroma subsampling : 4:2:0
Bit depth : 10 bits
Bits/(Pixel*Frame) : 0.065
Stream size : 5.89 GiB (94%)
Default : Yes
Forced : No
Color range : Limited
Color primaries : BT.709
Transfer characteristics : BT.709
Matrix coefficients : BT.709

Audio
ID : 2
Format : E-AC-3 JOC
Format/Info : Enhanced AC-3 with Joint Object Coding
Commercial name : Dolby Digital Plus with Dolby Atmos
Codec ID : A_EAC3
Duration : 1 h 5 min
Bit rate mode : Constant
Bit rate : 768 kb/s
Channel(s) : 6 channels
Channel layout : L R C LFE Ls Rs
Sampling rate : 48.0 kHz
Frame rate : 31.250 FPS (1536 SPF)
Bit depth : 32 bits
Compression mode : Lossy
Stream size : 360 MiB (6%)
Language : English
Service kind : Complete Main
Default : Yes
Forced : No
Complexity index : 16
Number of dynamic objects : 15
Bed channel count : 1 channel
Bed channel configuration : LFE

Text #1
ID : 3
Format : UTF-8
Codec ID : S_TEXT/UTF8
Codec ID/Info : UTF-8 Plain Text
Duration : 1 h 2 min
Bit rate : 52 b/s
Frame rate : 0.183 FPS
Count of elements : 690
Stream size : 24.0 KiB (0%)
Language : English
Default : No
Forced : No

Text #2
ID : 4
Format : UTF-8
Codec ID : S_TEXT/UTF8
Codec ID/Info : UTF-8 Plain Text
Duration : 1 h 5 min
Bit rate : 59 b/s
Frame rate : 0.243 FPS
Count of elements : 946
Stream size : 28.5 KiB (0%)
Title : SDH
Language : English
Default : No
Forced : No

Text #3
ID : 5
Format : UTF-8
Codec ID : S_TEXT/UTF8
Codec ID/Info : UTF-8 Plain Text
Duration : 1 h 2 min
Bit rate : 83 b/s
Frame rate : 0.163 FPS
Count of elements : 614
Stream size : 38.5 KiB (0%)
Language : Bulgarian
Default : No
Forced : No

Text #4
ID : 6
Format : UTF-8
Codec ID : S_TEXT/UTF8
Codec ID/Info : UTF-8 Plain Text
Duration : 1 h 3 min
Bit rate : 49 b/s
Frame rate : 0.162 FPS
Count of elements : 616
Stream size : 23.1 KiB (0%)
Language : Czech
Default : No
Forced : No

Text #5
ID : 7
Format : UTF-8
Codec ID : S_TEXT/UTF8
Codec ID/Info : UTF-8 Plain Text
Duration : 1 h 2 min
Bit rate : 54 b/s
Frame rate : 0.162 FPS
Count of elements : 609
Stream size : 24.8 KiB (0%)
Language : Danish
Default : No
Forced : No

Text #6
ID : 8
Format : UTF-8
Codec ID : S_TEXT/UTF8
Codec ID/Info : UTF-8 Plain Text
Duration : 1 h 2 min
Bit rate : 93 b/s
Frame rate : 0.163 FPS
Count of elements : 613
Stream size : 43.1 KiB (0%)
Language : Greek
Default : No
Forced : No

Text #7
ID : 9
Format : UTF-8
Codec ID : S_TEXT/UTF8
Codec ID/Info : UTF-8 Plain Text
Duration : 1 h 2 min
Bit rate : 54 b/s
Frame rate : 0.179 FPS
Count of elements : 674
Stream size : 24.9 KiB (0%)
Title : Spanish (Latin America)
Language : Spanish
Default : No
Forced : No

Text #8
ID : 10
Format : UTF-8
Codec ID : S_TEXT/UTF8
Codec ID/Info : UTF-8 Plain Text
Duration : 1 h 5 min
Bit rate : 66 b/s
Frame rate : 0.256 FPS
Count of elements : 1007
Stream size : 31.7 KiB (0%)
Title : Spanish (Latin America) (SDH)
Language : Spanish
Default : No
Forced : No

Text #9
ID : 11
Format : UTF-8
Codec ID : S_TEXT/UTF8
Codec ID/Info : UTF-8 Plain Text
Duration : 1 h 2 min
Bit rate : 52 b/s
Frame rate : 0.171 FPS
Count of elements : 643
Stream size : 24.2 KiB (0%)
Title : Spanish (Spain)
Language : Spanish
Default : No
Forced : No

Text #10
ID : 12
Format : UTF-8
Codec ID : S_TEXT/UTF8
Codec ID/Info : UTF-8 Plain Text
Duration : 1 h 2 min
Bit rate : 52 b/s
Frame rate : 0.163 FPS
Count of elements : 614
Stream size : 24.3 KiB (0%)
Language : Estonian
Default : No
Forced : No

Text #11
ID : 13
Format : UTF-8
Codec ID : S_TEXT/UTF8
Codec ID/Info : UTF-8 Plain Text
Duration : 1 h 2 min
Bit rate : 51 b/s
Frame rate : 0.141 FPS
Count of elements : 532
Stream size : 23.7 KiB (0%)
Language : Finnish
Default : No
Forced : No

Text #12
ID : 14
Format : UTF-8
Codec ID : S_TEXT/UTF8
Codec ID/Info : UTF-8 Plain Text
Duration : 1 h 2 min
Bit rate : 46 b/s
Frame rate : 0.163 FPS
Count of elements : 612
Stream size : 21.5 KiB (0%)
Language : Croatian
Default : No
Forced : No

Text #13
ID : 15
Format : UTF-8
Codec ID : S_TEXT/UTF8
Codec ID/Info : UTF-8 Plain Text
Duration : 1 h 2 min
Bit rate : 55 b/s
Frame rate : 0.162 FPS
Count of elements : 611
Stream size : 25.5 KiB (0%)
Language : Hungarian
Default : No
Forced : No

Text #14
ID : 16
Format : UTF-8
Codec ID : S_TEXT/UTF8
Codec ID/Info : UTF-8 Plain Text
Duration : 1 h 2 min
Bit rate : 57 b/s
Frame rate : 0.163 FPS
Count of elements : 614
Stream size : 26.4 KiB (0%)
Language : Icelandic
Default : No
Forced : No

Text #15
ID : 17
Format : UTF-8
Codec ID : S_TEXT/UTF8
Codec ID/Info : UTF-8 Plain Text
Duration : 1 h 2 min
Bit rate : 50 b/s
Frame rate : 0.163 FPS
Count of elements : 615
Stream size : 23.4 KiB (0%)
Language : Lithuanian
Default : No
Forced : No

Text #16
ID : 18
Format : UTF-8
Codec ID : S_TEXT/UTF8
Codec ID/Info : UTF-8 Plain Text
Duration : 1 h 2 min
Bit rate : 51 b/s
Frame rate : 0.164 FPS
Count of elements : 616
Stream size : 23.5 KiB (0%)
Language : Latvian
Default : No
Forced : No

Text #17
ID : 19
Format : UTF-8
Codec ID : S_TEXT/UTF8
Codec ID/Info : UTF-8 Plain Text
Duration : 1 h 2 min
Bit rate : 84 b/s
Frame rate : 0.163 FPS
Count of elements : 614
Stream size : 39.0 KiB (0%)
Language : Macedonian
Default : No
Forced : No

Text #18
ID : 20
Format : UTF-8
Codec ID : S_TEXT/UTF8
Codec ID/Info : UTF-8 Plain Text
Duration : 1 h 2 min
Bit rate : 47 b/s
Frame rate : 0.157 FPS
Count of elements : 591
Stream size : 21.7 KiB (0%)
Language : Dutch
Default : No
Forced : No

Text #19
ID : 21
Format : UTF-8
Codec ID : S_TEXT/UTF8
Codec ID/Info : UTF-8 Plain Text
Duration : 1 h 3 min
Bit rate : 47 b/s
Frame rate : 0.132 FPS
Count of elements : 501
Stream size : 22.0 KiB (0%)
Language : Norwegian
Default : No
Forced : No

Text #20
ID : 22
Format : UTF-8
Codec ID : S_TEXT/UTF8
Codec ID/Info : UTF-8 Plain Text
Duration : 1 h 2 min
Bit rate : 47 b/s
Frame rate : 0.163 FPS
Count of elements : 615
Stream size : 21.9 KiB (0%)
Language : Polish
Default : No
Forced : No

Text #21
ID : 23
Format : UTF-8
Codec ID : S_TEXT/UTF8
Codec ID/Info : UTF-8 Plain Text
Duration : 1 h 2 min
Bit rate : 56 b/s
Frame rate : 0.185 FPS
Count of elements : 697
Stream size : 26.1 KiB (0%)
Title : Portuguese (Brazil)
Language : Portuguese
Default : No
Forced : No

Text #22
ID : 24
Format : UTF-8
Codec ID : S_TEXT/UTF8
Codec ID/Info : UTF-8 Plain Text
Duration : 1 h 2 min
Bit rate : 54 b/s
Frame rate : 0.164 FPS
Count of elements : 616
Stream size : 24.9 KiB (0%)
Title : Portuguese (Portugal)
Language : Portuguese
Default : No
Forced : No

Text #23
ID : 25
Format : UTF-8
Codec ID : S_TEXT/UTF8
Codec ID/Info : UTF-8 Plain Text
Duration : 1 h 2 min
Bit rate : 55 b/s
Frame rate : 0.163 FPS
Count of elements : 615
Stream size : 25.4 KiB (0%)
Language : Romanian
Default : No
Forced : No

Text #24
ID : 26
Format : UTF-8
Codec ID : S_TEXT/UTF8
Codec ID/Info : UTF-8 Plain Text
Duration : 1 h 2 min
Bit rate : 85 b/s
Frame rate : 0.163 FPS
Count of elements : 615
Stream size : 39.1 KiB (0%)
Language : Russian
Default : No
Forced : No

Text #25
ID : 27
Format : UTF-8
Codec ID : S_TEXT/UTF8
Codec ID/Info : UTF-8 Plain Text
Duration : 1 h 2 min
Bit rate : 50 b/s
Frame rate : 0.163 FPS
Count of elements : 615
Stream size : 23.3 KiB (0%)
Language : Slovak
Default : No
Forced : No

Text #26
ID : 28
Format : UTF-8
Codec ID : S_TEXT/UTF8
Codec ID/Info : UTF-8 Plain Text
Duration : 1 h 2 min
Bit rate : 46 b/s
Frame rate : 0.162 FPS
Count of elements : 608
Stream size : 21.5 KiB (0%)
Language : Slovenian
Default : No
Forced : No

Text #27
ID : 29
Format : UTF-8
Codec ID : S_TEXT/UTF8
Codec ID/Info : UTF-8 Plain Text
Duration : 1 h 2 min
Bit rate : 44 b/s
Frame rate : 0.163 FPS
Count of elements : 614
Stream size : 20.5 KiB (0%)
Language : Serbian
Default : No
Forced : No

Text #28
ID : 30
Format : UTF-8
Codec ID : S_TEXT/UTF8
Codec ID/Info : UTF-8 Plain Text
Duration : 1 h 3 min
Bit rate : 49 b/s
Frame rate : 0.142 FPS
Count of elements : 537
Stream size : 22.8 KiB (0%)
Language : Swedish
Default : No
Forced : No

Text #29
ID : 31
Format : UTF-8
Codec ID : S_TEXT/UTF8
Codec ID/Info : UTF-8 Plain Text
Duration : 1 h 2 min
Bit rate : 55 b/s
Frame rate : 0.164 FPS
Count of elements : 618
Stream size : 25.3 KiB (0%)
Language : Turkish
Default : No
Forced : No

Menu
00:00:00.000 : en:Chapter 1
01:03:26.025 : en:Credits


下载地址:


第七集  
游客,如果您要查看本帖隐藏内容请回复

游客,如果您要查看本帖隐藏内容请回复

游客,如果您要查看本帖隐藏内容请回复

游客,如果您要查看本帖隐藏内容请回复

游客,如果您要查看本帖隐藏内容请回复

游客,如果您要查看本帖隐藏内容请回复


第六集
游客,如果您要查看本帖隐藏内容请回复

游客,如果您要查看本帖隐藏内容请回复

游客,如果您要查看本帖隐藏内容请回复

游客,如果您要查看本帖隐藏内容请回复

游客,如果您要查看本帖隐藏内容请回复

游客,如果您要查看本帖隐藏内容请回复


第五集
游客,如果您要查看本帖隐藏内容请回复

游客,如果您要查看本帖隐藏内容请回复

游客,如果您要查看本帖隐藏内容请回复

游客,如果您要查看本帖隐藏内容请回复

游客,如果您要查看本帖隐藏内容请回复

游客,如果您要查看本帖隐藏内容请回复

游客,如果您要查看本帖隐藏内容请回复

游客,如果您要查看本帖隐藏内容请回复


第四集
游客,如果您要查看本帖隐藏内容请回复

游客,如果您要查看本帖隐藏内容请回复

游客,如果您要查看本帖隐藏内容请回复

游客,如果您要查看本帖隐藏内容请回复

游客,如果您要查看本帖隐藏内容请回复

游客,如果您要查看本帖隐藏内容请回复


第三集
游客,如果您要查看本帖隐藏内容请回复
游客,如果您要查看本帖隐藏内容请回复

游客,如果您要查看本帖隐藏内容请回复

游客,如果您要查看本帖隐藏内容请回复

游客,如果您要查看本帖隐藏内容请回复

游客,如果您要查看本帖隐藏内容请回复

游客,如果您要查看本帖隐藏内容请回复


第二集
游客,如果您要查看本帖隐藏内容请回复

游客,如果您要查看本帖隐藏内容请回复

游客,如果您要查看本帖隐藏内容请回复

游客,如果您要查看本帖隐藏内容请回复

游客,如果您要查看本帖隐藏内容请回复

游客,如果您要查看本帖隐藏内容请回复

游客,如果您要查看本帖隐藏内容请回复


第一集
游客,如果您要查看本帖隐藏内容请回复

游客,如果您要查看本帖隐藏内容请回复

游客,如果您要查看本帖隐藏内容请回复

游客,如果您要查看本帖隐藏内容请回复

游客,如果您要查看本帖隐藏内容请回复

游客,如果您要查看本帖隐藏内容请回复

游客,如果您要查看本帖隐藏内容请回复

相关第一集字幕文件: 龙之家族[字幕文件]House.of.the.Dragon.S01E01.2160p.HMAX.WEB-DL.DDP5.1.HDR.HEVC-N.7z (43.14 KB)

上一篇:苏夫塞德女孩 [简繁粤中字] (2022) 第一季全/4K高清版本下载
下一篇:公寓大楼里的谋杀案 (2022) / 第二季全/4K高清版本下载
回复

使用道具 举报

51

主题

1526

帖子

4398

积分

4K家园VIP

Rank: 9Rank: 9Rank: 9

积分
4398
发表于 2022-9-1 11:19:05 | 显示全部楼层
没人回帖。。。我来个吧
回复 支持 反对

使用道具 举报

41

主题

1543

帖子

4461

积分

4K家园VIP

Rank: 9Rank: 9Rank: 9

积分
4461
发表于 2022-9-1 14:22:59 | 显示全部楼层
好,很好,非常好!
回复 支持 反对

使用道具 举报

0

主题

13

帖子

28

积分

新手上路

Rank: 1

积分
28
发表于 2022-9-1 15:20:02 | 显示全部楼层
冰與火之歌
回复 支持 反对

使用道具 举报

0

主题

2

帖子

9

积分

新手上路

Rank: 1

积分
9
发表于 2022-9-1 22:10:00 | 显示全部楼层
没人回帖。。。我来个吧
回复 支持 反对

使用道具 举报

0

主题

1241

帖子

3737

积分

4K家园VIP

Rank: 9Rank: 9Rank: 9

积分
3737
发表于 2022-9-1 22:57:00 | 显示全部楼层
不错 支持一个了
回复 支持 反对

使用道具 举报

1

主题

1174

帖子

3542

积分

4K家园VIP

Rank: 9Rank: 9Rank: 9

积分
3542
发表于 2022-9-2 01:59:43 | 显示全部楼层
占坑编辑ing
回复 支持 反对

使用道具 举报

2

主题

1206

帖子

3636

积分

4K家园VIP

Rank: 9Rank: 9Rank: 9

积分
3636
发表于 2022-9-2 08:11:18 | 显示全部楼层
额.....这个可以有
回复 支持 反对

使用道具 举报

0

主题

4

帖子

280

积分

4K家园VIP

Rank: 9Rank: 9Rank: 9

积分
280
发表于 2022-9-2 10:41:49 | 显示全部楼层
xiexiexiexie
回复 支持 反对

使用道具 举报

0

主题

138

帖子

959

积分

新手上路

Rank: 1

积分
959
发表于 2022-9-2 14:32:07 | 显示全部楼层
龙之家族
回复

使用道具 举报

您需要登录后才可以回帖 登录 | 立即注册

本版积分规则

精彩图文
Archiver|手机版|TAG|Sitemap|新帖|专题|联系我们:邮箱: 4kjia.com@gmail.com   

4k家园   ©2019