[4Kjia独享4K资源] [4Kjia独享] 唯我独尊 [简繁中字] / Me Time (2022) 4K高清版本下载

[复制链接]

2327

主题

2476

帖子

1万

积分

超级版主

Rank: 8Rank: 8

积分
17940
 楼主| 发表于 2022-9-1 13:09:09 | 显示全部楼层 |阅读模式
本帖最后由 最爱4K哟 于 2022-9-1 19:09 编辑

QQ图片20220901125112_副本.png

◎译  名 唯我独尊/放飞的奶爸/爸爸Me Time
◎片  名 Me Time
◎年  代 2022
◎产  地 美国
◎类  别 喜剧
◎语  言 英语
◎上映日期 2022-08-26(美国网络)
◎IMDb评分 5.1/10 from 1717 users
◎IMDb链接 https://www.imdb.com/title/tt14309446/
◎豆瓣评分 5.2/10 from 1146 users
◎豆瓣链接 https://movie.douban.com/subject/35567352/
◎导  演 约翰·汉博格 John Hamburg
◎编  剧 约翰·汉博格 John Hamburg
◎主  演 凯文·哈特 Kevin Hart
      马克·沃尔伯格 Mark Wahlberg
      雷吉娜·赫尔 Regina Hall
      欧阳万成 Jimmy O. Yang
      塔吉·莫里 Tahj Mowry
      卡尔洛·罗塔 Carlo Rota
      路易斯·赫拉尔多·门德斯 Luis Gerardo Méndez
      梅兰妮·米尼奇诺 Melanie Minichino
      德博拉·S·克雷格 Deborah S. Craig
      伊利娅·伊索雷利·保利诺 Ilia Isorelys Paulino
      桑德拉·罗斯科 Sandra Rosko
      Michelle DeShon Michelle DeShon
      Allison Bills Allison Bills
      康妮·陈 Connie Chen
      布拉德·李·温德 Brad Lee Wind

◎简  介

  一名全职爸爸辛苦多年,终于可以趁妻儿不在家享受Me Time。他与昔日的死党重逢,过了一个疯狂周末,却差点令自己的人生天翻地覆。
General
Complete name                  : G:\qB下载\[4Kjia独享资源] 唯我独尊 [简繁中字](14.06GB)Me.Time.(2022).WEB-DL.2160p.HDR.DV.ALANG
Format                         : Matroska
Format version                 : Version 4
File size                      : 14.1 GiB
Duration                       : 1 h 44 min
Overall bit rate               : 19.3 Mb/s
Encoded date                   : UTC 2022-09-01 06:18:21
Writing application            : mkvmerge v68.0.0 ('The Curtain') 64-bit
Writing library                : libebml v1.4.2 + libmatroska v1.6.4

Video
ID                             : 1
Format                         : HEVC
Format/Info                    : High Efficiency Video Coding
Format profile                 : Main 10@L5.1@High
HDR format                     : Dolby Vision, Version 1.0, dvhe.08.06, BL+RPU, HDR10 compatible / SMPTE ST 2086, HDR10 compatible
Codec ID                       : V_MPEGH/ISO/HEVC
Duration                       : 1 h 42 min
Bit rate                       : 18.9 Mb/s
Width                          : 3 840 pixels
Height                         : 1 604 pixels
Display aspect ratio           : 2.40:1
Frame rate mode                : Constant
Frame rate                     : 24.000 FPS
Color space                    : YUV
Chroma subsampling             : 4:2:0 (Type 2)
Bit depth                      : 10 bits
Bits/(Pixel*Frame)             : 0.128
Stream size                    : 13.5 GiB (96%)
Writing library                : x265 3.5+37+12-4e46995bc:[Windows][GCC 11.2.0][64 bit] 10bit
Encoding settings              : cpuid=1111039 / frame-threads=4 / numa-pools=28 / wpp / no-pmode / no-pme / no-psnr / no-ssim / log-level=2 / input-csp=1 / input-res=3840x1604 / interlace=0 / total-frames=149675 / level-idc=51 / high-tier=1 / uhd-bd=0 / ref=4 / no-allow-non-conformance / repeat-headers / annexb / aud / no-eob / no-eos / hrd / info / hash=0 / no-temporal-layers / open-gop / min-keyint=24 / keyint=250 / gop-lookahead=0 / bframes=4 / b-adapt=2 / b-pyramid / bframe-bias=0 / rc-lookahead=25 / lookahead-slices=4 / scenecut=40 / no-hist-scenecut / radl=0 / no-splice / no-intra-refresh / ctu=64 / min-cu-size=8 / rect / no-amp / max-tu-size=32 / tu-inter-depth=1 / tu-intra-depth=1 / limit-tu=0 / rdoq-level=2 / dynamic-rd=0.00 / no-ssim-rd / signhide / no-tskip / nr-intra=0 / nr-inter=0 / no-constrained-intra / strong-intra-smoothing / max-merge=3 / limit-refs=3 / limit-modes / me=3 / subme=3 / merange=57 / temporal-mvp / no-frame-dup / no-hme / weightp / no-weightb / no-analyze-src-pics / deblock=-2:-2 / no-sao / no-sao-non-deblock / rd=4 / selective-sao=0 / no-early-skip / rskip / no-fast-intra / no-tskip-fast / no-cu-lossless / no-b-intra / no-splitrd-skip / rdpenalty=0 / psy-rd=4.00 / psy-rdoq=15.00 / no-rd-refine / no-lossless / cbqpoffs=0 / crqpoffs=0 / rc=crf / crf=15.0 / qcomp=0.60 / qpstep=4 / stats-write=0 / stats-read=0 / vbv-maxrate=160000 / vbv-bufsize=160000 / vbv-init=0.9 / min-vbv-fullness=50.0 / max-vbv-fullness=80.0 / crf-max=0.0 / crf-min=0.0 / ipratio=1.40 / pbratio=1.30 / aq-mode=1 / aq-strength=1.00 / aq-bias-strength=1.00 / cutree / zone-count=0 / no-strict-cbr / qg-size=32 / no-rc-grain / qpmax=69 / qpmin=0 / no-const-vbv / sar=0 / overscan=0 / videoformat=5 / range=0 / colorprim=9 / transfer=16 / colormatrix=9 / chromaloc=1 / chromaloc-top=2 / chromaloc-bottom=2 / display-window=0 / master-display=G(13250,34500)B(7500,3000)R(34000,16000)WP(15635,16450)L(10000000,1) / cll=10000,203 / min-luma=0 / max-luma=1023 / log2-max-poc-lsb=8 / vui-timing-info / vui-hrd-info / slices=1 / no-opt-qp-pps / no-opt-ref-list-length-pps / no-multi-pass-opt-rps / scenecut-bias=0.05 / hist-threshold=0.03 / no-opt-cu-delta-qp / no-aq-motion / hdr10 / hdr10-opt / no-dhdr10-opt / no-idr-recovery-sei / analysis-reuse-level=0 / analysis-save-reuse-level=0 / analysis-load-reuse-level=0 / scale-factor=0 / refine-intra=0 / refine-inter=0 / refine-mv=1 / refine-ctu-distortion=0 / no-limit-sao / ctu-info=0 / no-lowpass-dct / refine-analysis-type=0 / copy-pic=1 / max-ausize-factor=1.0 / no-dynamic-refine / no-single-sei / no-hevc-aq / no-svt / no-field / qp-adaptation-range=1.00 / scenecut-aware-qp=0conformance-window-offsets / right=0 / bottom=0 / decoder-max-rate=0 / no-vbv-live-multi-pass
Default                        : Yes
Forced                         : No
Color range                    : Limited
Color primaries                : BT.2020
Transfer characteristics       : PQ
Matrix coefficients            : BT.2020 non-constant
Mastering display color primar : Display P3
Mastering display luminance    : min: 0.0001 cd/m2, max: 1000 cd/m2
Maximum Content Light Level    : 10000 cd/m2
Maximum Frame-Average Light Le : 203 cd/m2

Audio
ID                             : 2
Format                         : E-AC-3 JOC
Format/Info                    : Enhanced AC-3 with Joint Object Coding
Commercial name                : Dolby Digital Plus with Dolby Atmos
Codec ID                       : A_EAC3
Duration                       : 1 h 44 min
Bit rate mode                  : Constant
Bit rate                       : 768 kb/s
Channel(s)                     : 6 channels
Channel layout                 : L R C LFE Ls Rs
Sampling rate                  : 48.0 kHz
Frame rate                     : 31.250 FPS (1536 SPF)
Compression mode               : Lossy
Stream size                    : 572 MiB (4%)
Title                          : Original
Language                       : English
Service kind                   : Complete Main
Default                        : No
Forced                         : No
Complexity index               : 16
Number of dynamic objects      : 15
Bed channel count              : 1 channel
Bed channel configuration      : LFE

Text #1
ID                             : 3
Format                         : UTF-8
Codec ID                       : S_TEXT/UTF8
Codec ID/Info                  : UTF-8 Plain Text
Duration                       : 1 h 37 min
Bit rate                       : 116 b/s
Frame rate                     : 0.372 FPS
Count of elements              : 2177
Stream size                    : 83.4 KiB (0%)
Title                          : Full
Language                       : English
Default                        : No
Forced                         : No

Text #2
ID                             : 4
Format                         : UTF-8
Codec ID                       : S_TEXT/UTF8
Codec ID/Info                  : UTF-8 Plain Text
Duration                       : 1 h 41 min
Bit rate                       : 120 b/s
Frame rate                     : 0.378 FPS
Count of elements              : 2298
Stream size                    : 89.6 KiB (0%)
Title                          : SDH
Language                       : English
Default                        : No
Forced                         : No

Text #3
ID                             : 5
Format                         : UTF-8
Codec ID                       : S_TEXT/UTF8
Codec ID/Info                  : UTF-8 Plain Text
Duration                       : 1 h 41 min
Bit rate                       : 205 b/s
Frame rate                     : 0.333 FPS
Count of elements              : 2036
Stream size                    : 153 KiB (0%)
Title                          : 简体(中文)&英文
Language                       : Chinese
Default                        : Yes
Forced                         : No

Text #4
ID                             : 6
Format                         : UTF-8
Codec ID                       : S_TEXT/UTF8
Codec ID/Info                  : UTF-8 Plain Text
Duration                       : 1 h 41 min
Bit rate                       : 205 b/s
Frame rate                     : 0.333 FPS
Count of elements              : 2036
Stream size                    : 153 KiB (0%)
Title                          : 繁体(中文)&英文
Default                        : Yes
Forced                         : No

资源速度为零或资源敏感被和谐时,推荐使用qBittorrent等下载软件,有条件的推荐115更好的下载软件!

下载地址:


****此区域为收费内容****    需支付 9 金币后可查看立即购买




上一篇:人生七部曲 / The Meaning of Life (1983) 4K高清版本下载
下一篇:夏日进行时 / Summering (2022) 4K高清版本下载
回复

使用道具 举报

2327

主题

2476

帖子

1万

积分

超级版主

Rank: 8Rank: 8

积分
17940
 楼主| 发表于 2022-9-1 14:51:26 | 显示全部楼层
QQ图片20220901144241.png QQ图片20220901144333.png QQ图片20220901144523.png QQ图片20220901144443.png QQ图片20220901144654.png QQ图片20220901144733.png
回复 支持 反对

使用道具 举报

2

主题

1428

帖子

4136

积分

中级会员

Rank: 4

积分
4136
发表于 2022-9-1 13:09:13 | 显示全部楼层
这么强,支持楼主,佩服
回复 支持 反对

使用道具 举报

0

主题

13

帖子

28

积分

新手上路

Rank: 1

积分
28
发表于 2022-9-1 15:14:07 | 显示全部楼层
回复 支持 反对

使用道具 举报

51

主题

1542

帖子

4432

积分

4K家园VIP

Rank: 9Rank: 9Rank: 9

积分
4432
发表于 2022-9-2 06:32:52 | 显示全部楼层
我擦!我要沙发!
回复 支持 反对

使用道具 举报

34

主题

1560

帖子

4390

积分

4K家园VIP

Rank: 9Rank: 9Rank: 9

积分
4390
发表于 2022-9-2 12:36:32 来自手机 | 显示全部楼层
我也来顶一下..
回复 支持 反对

使用道具 举报

3

主题

1409

帖子

4069

积分

4K家园VIP

Rank: 9Rank: 9Rank: 9

积分
4069
发表于 2022-9-2 17:24:11 | 显示全部楼层
LZ帖子不给力,勉强给回复下吧
回复 支持 反对

使用道具 举报

49

主题

1555

帖子

4497

积分

4K家园VIP

Rank: 9Rank: 9Rank: 9

积分
4497
发表于 2022-9-3 21:38:38 | 显示全部楼层
4K应该不错,我也下个看看
回复 支持 反对

使用道具 举报

0

主题

55

帖子

780

积分

新手上路

Rank: 1

积分
780
发表于 2022-9-12 06:26:33 | 显示全部楼层
看禁闻http://v.ht/tttd 点击访问
回复

使用道具 举报

0

主题

55

帖子

780

积分

新手上路

Rank: 1

积分
780
发表于 2022-9-13 00:25:24 | 显示全部楼层
看禁闻http://v.ht/tttd 点击访问
回复

使用道具 举报

您需要登录后才可以回帖 登录 | 立即注册

本版积分规则

精彩图文
Archiver|手机版|TAG|Sitemap|新帖|专题|联系我们:邮箱: 4kjia.com@gmail.com   

4k家园   ©2019