[4K美女视频] 虎门商场时装周内衣秀4K珍藏版 [2160/MP4/1.08GB]

[复制链接]

800

主题

883

帖子

5549

积分

超级版主

Rank: 8Rank: 8

积分
5549
 楼主| 发表于 2019-7-10 11:13:48 | 显示全部楼层 |阅读模式

虎门商场时装周内衣秀4K珍藏版.mp4_20190708_130939.077.jpg 虎门商场时装周内衣秀4K珍藏版.mp4_20190708_131543.176.jpg 虎门商场时装周内衣秀4K珍藏版.mp4_20190708_131606.072.jpg 虎门商场时装周内衣秀4K珍藏版.mp4_20190708_131626.953.jpg 虎门商场时装周内衣秀4K珍藏版.mp4.jpg

General
Complete name                  : 4K视频\虎门商场时装周内衣秀4K珍藏版.mp4
Format                         : MPEG-4
Format profile                 : Base Media
Codec ID                       : isom (isom/iso2/avc1/mp41)
File size                      : 1.08 GiB
Duration                       : 11 min 46 s
Overall bit rate mode          : Variable
Overall bit rate               : 13.1 Mb/s
Writing application            : Lavf58.12.100

Video
ID                             : 1
Format                         : AVC
Format/Info                    : Advanced Video Codec
Format profile                 : [email protected]
Format settings                : CABAC / 4 Ref Frames
Format settings, CABAC         : Yes
Format settings, Reference fra : 4 frames
Codec ID                       : avc1
Codec ID/Info                  : Advanced Video Coding
Duration                       : 11 min 46 s
Bit rate                       : 13.0 Mb/s
Width                          : 3 596 pixels
Height                         : 2 152 pixels
Display aspect ratio           : 5:3
Frame rate mode                : Constant
Frame rate                     : 29.000 FPS
Color space                    : YUV
Chroma subsampling             : 4:2:0
Bit depth                      : 8 bits
Scan type                      : Progressive
Bits/(Pixel*Frame)             : 0.058
Stream size                    : 1.07 GiB (99%)
Writing library                : x264 core 148
Encoding settings              : cabac=1 / ref=3 / deblock=1:0:0 / analyse=0x3:0x113 / me=hex / subme=7 / psy=1 / psy_rd=1.00:0.00 / mixed_ref=1 / me_range=16 / chroma_me=1 / trellis=1 / 8x8dct=1 / cqm=0 / deadzone=21,11 / fast_pskip=1 / chroma_qp_offset=-2 / threads=6 / lookahead_threads=1 / sliced_threads=0 / nr=0 / decimate=1 / interlaced=0 / bluray_compat=0 / constrained_intra=0 / bframes=3 / b_pyramid=2 / b_adapt=1 / b_bias=0 / direct=1 / weightb=1 / open_gop=0 / weightp=2 / keyint=250 / keyint_min=25 / scenecut=40 / intra_refresh=0 / rc_lookahead=40 / rc=abr / mbtree=1 / bitrate=13000 / ratetol=1.0 / qcomp=0.60 / qpmin=0 / qpmax=69 / qpstep=4 / ip_ratio=1.40 / aq=1:1.00
Language                       : English
Codec configuration box        : avcC

Audio
ID                             : 2
Format                         : AAC LC
Format/Info                    : Advanced Audio Codec Low Complexity
Codec ID                       : mp4a-40-2
Duration                       : 11 min 46 s
Duration_LastFrame             : -7 ms
Bit rate mode                  : Variable
Bit rate                       : 126 kb/s
Maximum bit rate               : 128 kb/s
Channel(s)                     : 2 channels
Channel layout                 : L R
Sampling rate                  : 44.1 kHz
Frame rate                     : 43.066 FPS (1024 SPF)
Compression mode               : Lossy
Stream size                    : 10.6 MiB (1%)
Language                       : English
Default                        : Yes
Alternate group                : 1



网盘下载失效不补:链接: https://pan.baidu.com/s/1aBDyU0TIU2eZ9BO5HkwkwQ
****此区域为收费内容****    需支付 15 金币后可查看立即购买

1.gif

上一篇:2019 韩国比基尼健美比赛现场实拍127 [2160/MP4/356MB]
下一篇:2019 花博亚洲动漫创作展黑丝袜兔宝宝 [2160/MP4/145MB]
回复

使用道具 举报

0

主题

930

帖子

2634

积分

4K家园VIP

Rank: 9Rank: 9Rank: 9

积分
2634
发表于 2019-7-10 11:14:01 | 显示全部楼层
4K版的应该更清晰吧
回复 支持 反对

使用道具 举报

0

主题

314

帖子

2080

积分

4K家园VIP

Rank: 9Rank: 9Rank: 9

积分
2080
QQ
发表于 2019-7-10 11:32:04 | 显示全部楼层
多发内衣题材就好了。
回复 支持 反对

使用道具 举报

0

主题

917

帖子

2763

积分

4K家园VIP

Rank: 9Rank: 9Rank: 9

积分
2763
发表于 2019-7-10 18:06:39 | 显示全部楼层
我也顶起出售广告位
回复 支持 反对

使用道具 举报

52

主题

1069

帖子

3067

积分

4K家园VIP

Rank: 9Rank: 9Rank: 9

积分
3067
发表于 7 天前 | 显示全部楼层
4K版的应该更清晰吧
回复 支持 反对

使用道具 举报

0

主题

19

帖子

71

积分

新手上路

Rank: 1

积分
71
发表于 7 天前 | 显示全部楼层

支持楼主,支持4K家园,顶一个!
回复 支持 反对

使用道具 举报

45

主题

1061

帖子

3009

积分

4K家园VIP

Rank: 9Rank: 9Rank: 9

积分
3009
发表于 6 天前 | 显示全部楼层
报告!别开枪,我就是路过来看看的。。。
回复 支持 反对

使用道具 举报

37

主题

1086

帖子

3048

积分

4K家园VIP

Rank: 9Rank: 9Rank: 9

积分
3048
发表于 4 天前 来自手机 | 显示全部楼层
占位编辑
回复 支持 反对

使用道具 举报

您需要登录后才可以回帖 登录 | 立即注册

本版积分规则

精彩图文
关闭

站长推荐上一条 /2 下一条

4k家园   ©2019