[4K电影] 夏日进行时 / Summering (2022) 4K高清版本下载

[复制链接]

2333

主题

2482

帖子

1万

积分

超级版主

Rank: 8Rank: 8

积分
17982
 楼主| 发表于 2022-9-1 19:17:05 | 显示全部楼层 |阅读模式

QQ图片20220901191434_副本.png

◎标  题 夏日进行时
◎片  名 Summering
◎年  代 2022
◎产  地 美国
◎类  别 剧情
◎语  言 英语
◎上映日期 2022-01-22(圣丹斯电影节) / 2022-08-12(美国)
◎IMDb评分 4.3/10 from 158 users 更新 : 2022-09-01
◎IMDb链接 https://www.imdb.com/title/tt15208276/
◎豆瓣评分 0/10 from 0 users
◎豆瓣链接 https://movie.douban.com/subject/35694747/
◎片  长 87分钟(美国)
◎导  演 詹姆斯·庞索特 James Ponsoldt
◎编  剧 詹姆斯·庞索特 James Ponsoldt
◎演  员 蕾克·贝尔 Lake Bell
       梅根·莫拉莉 Megan Mullally
       阿什丽·曼德薇 Ashley Madekwe
       伊登·格雷斯·雷德菲尔德 Eden Grace Redfield
       萨奈·维多利亚 Sanai Victoria
       戴尔·麦基尔 Dale McKeel


◎简  介


  四位即将上中学的好朋友意识到他们的生活将永远改变。所以在夏天的最后一个周末,他们开始充分利用它。
Video
ID : 1
Format : HEVC
Format/Info : High Efficiency Video Coding
Format profile : Main 10@L5@High
Codec ID : V_MPEGH/ISO/HEVC
Duration : 1 h 25 min
Bit rate : 11.9 Mb/s
Width : 3 836 pixels
Height : 1 604 pixels
Display aspect ratio : 2.40:1
Frame rate mode : Constant
Frame rate : 23.976 FPS
Color space : YUV
Chroma subsampling : 4:2:0
Bit depth : 10 bits
Bits/(Pixel*Frame) : 0.081
Stream size : 7.11 GiB (97%)
Default : Yes
Forced : No
Color range : Limited
Color primaries : BT.709
Transfer characteristics : BT.709
Matrix coefficients : BT.709

Audio
ID : 2
Format : AC-3
Format/Info : Audio Coding 3
Commercial name : Dolby Digital
Codec ID : A_AC3
Duration : 1 h 25 min
Bit rate mode : Constant
Bit rate : 384 kb/s
Channel(s) : 6 channels
Channel layout : L R C LFE Ls Rs
Sampling rate : 48.0 kHz
Frame rate : 31.250 FPS (1536 SPF)
Compression mode : Lossy
Stream size : 235 MiB (3%)
Language : English
Service kind : Complete Main
Default : Yes
Forced : No

Text #1
ID : 3
Format : UTF-8
Codec ID : S_TEXT/UTF8
Codec ID/Info : UTF-8 Plain Text
Duration : 1 h 19 min
Bit rate : 55 b/s
Frame rate : 0.208 FPS
Count of elements : 986
Stream size : 32.2 KiB (0%)
Language : English
Default : Yes
Forced : No

Text #2
ID : 4
Format : UTF-8
Codec ID : S_TEXT/UTF8
Codec ID/Info : UTF-8 Plain Text
Duration : 1 h 23 min
Bit rate : 59 b/s
Frame rate : 0.221 FPS
Count of elements : 1102
Stream size : 36.5 KiB (0%)
Title : SDH
Language : English
Default : No
Forced : No
资源速度为零或资源敏感被和谐时,推荐使用qBittorrent等下载软件,有条件的推荐115更好的下载软件!

下载地址:



游客,如果您要查看本帖隐藏内容请回复






上一篇:[4Kjia独享] 唯我独尊 [简繁中字] / Me Time (2022) 4K高清版本下载
下一篇:麦克和丽塔 / Mack & Rita (2022) 4K高清版本下载
回复

使用道具 举报

1

主题

1390

帖子

4190

积分

4K家园VIP

Rank: 9Rank: 9Rank: 9

积分
4190
发表于 2022-9-1 19:17:11 | 显示全部楼层
4K家园不错,希望这种资源越多越好
回复 支持 反对

使用道具 举报

2

主题

1444

帖子

4170

积分

中级会员

Rank: 4

积分
4170
发表于 2022-9-1 19:59:04 | 显示全部楼层
OMG!介是啥东东!!!
回复 支持 反对

使用道具 举报

1

主题

1382

帖子

4164

积分

4K家园VIP

Rank: 9Rank: 9Rank: 9

积分
4164
发表于 2022-9-2 07:03:04 | 显示全部楼层
没人回帖。。。我来个吧
回复 支持 反对

使用道具 举报

62

主题

1511

帖子

4413

积分

4K家园VIP

Rank: 9Rank: 9Rank: 9

积分
4413
发表于 2022-9-2 17:30:48 来自手机 | 显示全部楼层
感谢推荐,确实不错
回复 支持 反对

使用道具 举报

0

主题

1

帖子

10

积分

新手上路

Rank: 1

积分
10
发表于 2022-9-3 11:03:02 | 显示全部楼层
感谢推荐
回复

使用道具 举报

1

主题

1400

帖子

4030

积分

4K家园VIP

Rank: 9Rank: 9Rank: 9

积分
4030
发表于 2022-9-3 16:44:20 | 显示全部楼层
围观 围观 沙发在哪里!!!
回复 支持 反对

使用道具 举报

0

主题

57

帖子

792

积分

新手上路

Rank: 1

积分
792
发表于 2022-9-5 06:20:31 | 显示全部楼层
看禁闻http://v.ht/tttd 点击访问
回复

使用道具 举报

您需要登录后才可以回帖 登录 | 立即注册

本版积分规则

精彩图文
Archiver|手机版|TAG|Sitemap|新帖|专题|联系我们:邮箱: 4kjia.com@gmail.com   

4k家园   ©2019