[4K电影] 麦克和丽塔 / Mack & Rita (2022) 4K高清版本下载

[复制链接]

2333

主题

2482

帖子

1万

积分

超级版主

Rank: 8Rank: 8

积分
17979
 楼主| 发表于 2022-9-1 19:36:57 | 显示全部楼层 |阅读模式
本帖最后由 最爱4K哟 于 2022-9-1 20:27 编辑

QQ图片20220901191528_副本.png

◎译  名 麦克和丽塔 / 返童还老
◎片  名 Mack & Rita
◎年  代 2022
◎产  地 美国
◎类  别 喜剧
◎语  言 英语
◎上映日期 2022-08-12(美国)
◎IMDb评分 4.4/10 from 301 users 更新 : 2022-09-01
◎IMDb链接 https://www.imdb.com/title/tt14330236/
◎豆瓣评分 0/10 from 0 users
◎豆瓣链接 https://movie.douban.com/subject/35729377/
◎片  长 95分钟
◎导  演 凯蒂·阿赛尔顿 Katie Aselton
◎编  剧 玛德琳·瓦尔特 Madeline Walter / 保罗·威尔什 Paul Welsh
◎主  演 黛安·基顿 Diane Keaton
                   伊丽莎白·莱尔 Elizabeth Lail
                   泰勒·佩姬 Taylour Paige
                   洛雷塔·迪瓦恩 Loretta Devine
                   达斯汀·米利甘 Dustin Milligan
                   艾米·卡里诺 Aimee Carrero
                   艾迪·韦里希 Addie Weyrich
                   西蒙·雷克斯 Simon Rex
                   劳伦·贝弗里奇 Lauren Beveridge
                   凯瑟琳·卡兰 Catherine Carlen
                   安妮·汉密尔顿 Annie Hamilton
                   萨拉·阿米尼 Sara Amini
                   妮可·拜尔 Nicole Byer
                   帕蒂·哈里森 Patti Harrison
                   艾米·希尔 Amy Hill
                   维拉.洛弗尔 Vella Lovell
                   温蒂·马力克 Wendie Malick
                   杰弗里·塞尔夫 Jeffery Self
                   马丁·肖特 Martin Short
                   罗伊丝·史密斯 Lois Smith
                   马克·凯利 Mark Kelly

◎简  介


        年过30的女作家麦克(伊丽莎白·莱尔 饰演)总觉得自己内心其实是一个老古板。在棕榈泉度过狂欢周末时,独自在一个占卜师那里做了一场冥想,一觉醒来发现自己神奇地变成了七十岁的自己(黛安·基顿饰演)。
General
Complete name                  : G:\qB下载\Mack.and.Rita.2022.2160p.WEB-DL.DD5.1.H.265-EVO
Format                         : Matroska
Format version                 : Version 4
File size                      : 8.24 GiB
Duration                       : 1 h 34 min
Overall bit rate               : 12.4 Mb/s
Encoded date                   : UTC 2022-09-01 10:40:32
Writing application            : mkvmerge v63.0.0 ('Everything') 64-bit
Writing library                : libebml v1.4.2 + libmatroska v1.6.4

Video
ID                             : 1
Format                         : HEVC
Format/Info                    : High Efficiency Video Coding
Format profile                 : Main 10@L5@High
Codec ID                       : V_MPEGH/ISO/HEVC
Duration                       : 1 h 34 min
Bit rate                       : 11.8 Mb/s
Width                          : 3 832 pixels
Height                         : 2 064 pixels
Display aspect ratio           : 1.85:1
Frame rate mode                : Constant
Frame rate                     : 23.976 (24000/1001) FPS
Color space                    : YUV
Chroma subsampling             : 4:2:0
Bit depth                      : 10 bits
Bits/(Pixel*Frame)             : 0.062
Stream size                    : 7.82 GiB (95%)
Default                        : Yes
Forced                         : No
Color range                    : Limited
Color primaries                : BT.709
Transfer characteristics       : BT.709
Matrix coefficients            : BT.709

Audio
ID                             : 2
Format                         : AC-3
Format/Info                    : Audio Coding 3
Commercial name                : Dolby Digital
Codec ID                       : A_AC3
Duration                       : 1 h 34 min
Bit rate mode                  : Constant
Bit rate                       : 384 kb/s
Channel(s)                     : 6 channels
Channel layout                 : L R C LFE Ls Rs
Sampling rate                  : 48.0 kHz
Frame rate                     : 31.250 FPS (1536 SPF)
Compression mode               : Lossy
Stream size                    : 260 MiB (3%)
Language                       : English
Service kind                   : Complete Main
Default                        : Yes
Forced                         : No

资源速度为零或资源敏感被和谐时,推荐使用qBittorrent等下载软件,有条件的推荐115更好的下载软件!

下载地址:

游客,如果您要查看本帖隐藏内容请回复



上一篇:夏日进行时 / Summering (2022) 4K高清版本下载
下一篇:[纪录片] 海洋视野:海洋中的森林 50fps (2017)4K高清版本下载
回复

使用道具 举报

1

主题

1617

帖子

4493

积分

4K家园VIP

Rank: 9Rank: 9Rank: 9

积分
4493
发表于 2022-9-1 19:37:02 来自手机 | 显示全部楼层
不错 支持下
回复 支持 反对

使用道具 举报

3

主题

1314

帖子

3964

积分

4K家园VIP

Rank: 9Rank: 9Rank: 9

积分
3964
发表于 2022-9-2 05:30:33 来自手机 | 显示全部楼层
差评
回复 支持 反对

使用道具 举报

0

主题

477

帖子

2907

积分

注册会员

Rank: 2

积分
2907
发表于 2022-9-2 10:41:11 | 显示全部楼层
不知道好看不
回复 支持 反对

使用道具 举报

0

主题

1408

帖子

4086

积分

4K家园VIP

Rank: 9Rank: 9Rank: 9

积分
4086
发表于 2022-9-5 14:26:06 | 显示全部楼层
LZ帖子不给力,勉强给回复下吧
回复 支持 反对

使用道具 举报

4

主题

1383

帖子

4171

积分

4K家园VIP

Rank: 9Rank: 9Rank: 9

积分
4171
发表于 2022-9-7 15:12:58 | 显示全部楼层
前排支持下
回复 支持 反对

使用道具 举报

2

主题

1689

帖子

4655

积分

4K家园VIP

Rank: 9Rank: 9Rank: 9

积分
4655
发表于 2022-9-9 23:33:05 | 显示全部楼层
求沙发
回复 支持 反对

使用道具 举报

您需要登录后才可以回帖 登录 | 立即注册

本版积分规则

精彩图文
Archiver|手机版|TAG|Sitemap|新帖|专题|联系我们:邮箱: 4kjia.com@gmail.com   

4k家园   ©2019