[4K美女视频] 2018 韩国斯波克斯健身NABBA经典S小姐-S健身小姐颁奖

[复制链接]

2856

主题

3223

帖子

2万

积分

超级版主

Rank: 8Rank: 8

积分
27260
 楼主| 发表于 2022-9-2 11:19:29 | 显示全部楼层 |阅读模式
【www.4kjia.com】2018 韩国斯波克斯健身NABBA经典S小姐-S健身小姐颁奖.mp4_20220902_.jpg 【www.4kjia.com】2018 韩国斯波克斯健身NABBA经典S小姐-S健身小姐颁奖.mp4_20220902_.jpg 【www.4kjia.com】2018 韩国斯波克斯健身NABBA经典S小姐-S健身小姐颁奖.mp4_20220902_.jpg 【www.4kjia.com】2018 韩国斯波克斯健身NABBA经典S小姐-S健身小姐颁奖.mp4_20220902_.jpg 【www.4kjia.com】2018 韩国斯波克斯健身NABBA经典S小姐-S健身小姐颁奖.mp4_20220902_.jpg 【www.4kjia.com】2018 韩国斯波克斯健身NABBA经典S小姐-S健身小姐颁奖.mp4_20220902_.jpg

General
Complete name                  : Q:\4K@视频 4K@MV\4K视频\【www.4kjia.com】2018 韩国斯波克斯健身NABBA经典S小姐-S健身小姐颁奖\【www.4kjia.com】2018 韩国斯波克斯健身NABBA经典S小姐-S健身小姐颁奖.mp4
Format                         : MPEG-4
Format profile                 : Base Media
Codec ID                       : isom (isom/iso2/avc1/mp41)
File size                      : 382 MiB
Duration                       : 3 min 24 s
Overall bit rate               : 15.6 Mb/s
Writing application            : EX1.4.2(C1.0.8)

Video
ID                             : 1
Format                         : AVC
Format/Info                    : Advanced Video Codec
Format profile                 : High@L5.1
Format settings                : CABAC / 3 Ref Frames
Format settings, CABAC         : Yes
Format settings, Reference fra : 3 frames
Codec ID                       : avc1
Codec ID/Info                  : Advanced Video Coding
Duration                       : 3 min 24 s
Bit rate                       : 15.4 Mb/s
Width                          : 2 160 pixels
Height                         : 3 840 pixels
Display aspect ratio           : 0.562
Frame rate mode                : Constant
Frame rate                     : 29.970 (29970/1000) FPS
Color space                    : YUV
Chroma subsampling             : 4:2:0
Bit depth                      : 8 bits
Scan type                      : Progressive
Bits/(Pixel*Frame)             : 0.062
Stream size                    : 377 MiB (99%)
Color range                    : Limited
Color primaries                : BT.709
Transfer characteristics       : BT.709
Matrix coefficients            : BT.709
Codec configuration box        : avcC

Audio
ID                             : 2
Format                         : AAC LC
Format/Info                    : Advanced Audio Codec Low Complexity
Codec ID                       : mp4a-40-2
Duration                       : 3 min 24 s
Bit rate mode                  : Constant
Bit rate                       : 192 kb/s
Channel(s)                     : 2 channels
Channel layout                 : L R
Sampling rate                  : 48.0 kHz
Frame rate                     : 46.875 FPS (1024 SPF)
Compression mode               : Lossy
Stream size                    : 4.69 MiB (1%)
Default                        : Yes
Alternate group                : 1
告知下载问题:不要用迅雷,不要用迅雷,不要用迅雷,不要用迅雷,不要用迅雷,不要用迅雷

下载地址:
游客,如果您要查看本帖隐藏内容请回复

提供2010-2022年本人多年来珍藏优质[4K、8K、16K(25-120fps)] 高品质韩国(女团)MV、各种演示片、测试片等4K韩国MV“珍藏版”视频硬盘有偿拷贝或网盘分享,最新4K视频每天更新中,需要的联系本楼主!










上一篇:[4K国家地理] 阿拉斯加 - “航行内通道” (2021) [2160P/MKV652MB]
下一篇:2019 首尔车展本田Hong-1型摩托车)-洪智妍-2 [2160P/MKV/152MB]
回复

使用道具 举报

50

主题

1519

帖子

4361

积分

4K家园VIP

Rank: 9Rank: 9Rank: 9

积分
4361
发表于 2022-9-2 11:19:34 | 显示全部楼层
还有没有别的资源,多分享些
回复 支持 反对

使用道具 举报

48

主题

1547

帖子

4513

积分

4K家园VIP

Rank: 9Rank: 9Rank: 9

积分
4513
发表于 2022-9-2 11:34:38 | 显示全部楼层
哈哈,我只看看不说话
回复 支持 反对

使用道具 举报

62

主题

1511

帖子

4413

积分

4K家园VIP

Rank: 9Rank: 9Rank: 9

积分
4413
发表于 2022-9-2 11:58:36 | 显示全部楼层
为了三千积分!
回复 支持 反对

使用道具 举报

3

主题

1331

帖子

3799

积分

4K家园VIP

Rank: 9Rank: 9Rank: 9

积分
3799
发表于 2022-9-2 13:07:30 | 显示全部楼层
还有没有别的资源,多分享些
回复 支持 反对

使用道具 举报

2

主题

1356

帖子

4092

积分

4K家园VIP

Rank: 9Rank: 9Rank: 9

积分
4092
发表于 2022-9-2 13:10:47 | 显示全部楼层
1v1飘过
回复 支持 反对

使用道具 举报

0

主题

15

帖子

42

积分

新手上路

Rank: 1

积分
42
发表于 2022-9-7 14:34:58 | 显示全部楼层
谢谢分享
回复

使用道具 举报

0

主题

1

帖子

10

积分

新手上路

Rank: 1

积分
10
发表于 2022-9-10 09:10:58 | 显示全部楼层
顶顶顶
回复

使用道具 举报

0

主题

16

帖子

52

积分

新手上路

Rank: 1

积分
52
发表于 2022-9-12 21:52:56 | 显示全部楼层
谢谢楼主分享
回复 支持 反对

使用道具 举报

0

主题

2

帖子

9

积分

新手上路

Rank: 1

积分
9
发表于 2022-9-16 07:13:08 来自手机 | 显示全部楼层
希望快点下载
回复 支持 反对

使用道具 举报

您需要登录后才可以回帖 登录 | 立即注册

本版积分规则

精彩图文
Archiver|手机版|TAG|Sitemap|新帖|专题|联系我们:邮箱: 4kjia.com@gmail.com   

4k家园   ©2019