[4K电影] [纪录片] 海洋视野:海洋中的森林 50fps (2017)4K高清版本下载

[复制链接]

2856

主题

3223

帖子

2万

积分

超级版主

Rank: 8Rank: 8

积分
27260
 楼主| 发表于 2022-9-3 11:34:37 | 显示全部楼层 |阅读模式
本帖最后由 叽里呱啦 于 2022-9-4 12:43 编辑

海洋视野:海洋中的森林.mkv_20220902_113029.806.jpg 海洋视野:海洋中的森林.mkv_20220902_113041.329.jpg 海洋视野:海洋中的森林.mkv_20220902_113050.193.jpg 海洋视野:海洋中的森林.mkv_20220902_113103.129.jpg 海洋视野:海洋中的森林.mkv_20220902_113110.473.jpg 海洋视野:海洋中的森林.mkv_20220902_113120.777.jpg
GenerComplete name                  : G:\qB下载\海洋视野:海洋中的森林\海洋视野:海洋中的森林.mkv
Format                         : Matroska
Format version                 : Version 4
File size                      : 6.27 GiB
Duration                       : 56 min 20 s
Overall bit rate               : 15.9 Mb/s
Encoded date                   : UTC 2022-08-27 02:43:46
Writing application            : mkvmerge v60.0.0 ('Are We Copies?') 32-bit
Writing library                : libebml v1.4.2 + libmatroska v1.6.4

Video
ID                             : 1
Format                         : HEVC
Format/Info                    : High Efficiency Video Coding
Format profile                 : Main 10@L5.1@Main
Codec ID                       : V_MPEGH/ISO/HEVC
Duration                       : 56 min 20 s
Bit rate                       : 15.7 Mb/s
Width                          : 3 840 pixels
Height                         : 2 160 pixels
Display aspect ratio           : 16:9
Frame rate mode                : Constant
Frame rate                     : 50.000 FPS
Standard                       : Component
Color space                    : YUV
Chroma subsampling             : 4:2:0 (Type 0)
Bit depth                      : 10 bits
Bits/(Pixel*Frame)             : 0.038
Stream size                    : 6.19 GiB (99%)
Default                        : Yes
Forced                         : No
Color range                    : Limited
Color primaries                : BT.709
Transfer characteristics       : BT.709
Matrix coefficients            : BT.709

Audio
ID                             : 2
Format                         : AAC LC
Format/Info                    : Advanced Audio Codec Low Complexity
Codec ID                       : A_AAC-2
Duration                       : 56 min 20 s
Bit rate                       : 192 kb/s
Channel(s)                     : 2 channels
Channel layout                 : L R
Sampling rate                  : 48.0 kHz
Frame rate                     : 46.875 FPS (1024 SPF)
Compression mode               : Lossy
Delay relative to video        : 80 ms
Stream size                    : 76.3 MiB (1%)
Language                       : Russian
Default                        : Yes
Forced                         : No

下载地址:

****此区域为收费内容****    需支付 30 金币后可查看立即购买

****此区域为收费内容****    需支付 30 金币后可查看立即购买




上一篇:麦克和丽塔 / Mack & Rita (2022) 4K高清版本下载
下一篇:埋葬 / Burial (2022) 4K高清版本下载
回复

使用道具 举报

40

主题

1530

帖子

4352

积分

4K家园VIP

Rank: 9Rank: 9Rank: 9

积分
4352
发表于 2022-9-3 11:34:41 | 显示全部楼层
这么强,支持楼主,佩服
回复 支持 反对

使用道具 举报

0

主题

107

帖子

645

积分

新手上路

Rank: 1

积分
645
发表于 2022-9-4 10:26:26 | 显示全部楼层
支持楼主
回复

使用道具 举报

43

主题

1518

帖子

4362

积分

4K家园VIP

Rank: 9Rank: 9Rank: 9

积分
4362
发表于 2022-9-4 17:01:00 来自手机 | 显示全部楼层
发发呆,回回帖,工作结束~
回复 支持 反对

使用道具 举报

1

主题

1428

帖子

4100

积分

4K家园VIP

Rank: 9Rank: 9Rank: 9

积分
4100
发表于 2022-9-5 16:34:08 | 显示全部楼层
楼主这资源不错,我收藏了
回复 支持 反对

使用道具 举报

56

主题

1542

帖子

4482

积分

4K家园VIP

Rank: 9Rank: 9Rank: 9

积分
4482
发表于 2022-9-5 19:57:50 | 显示全部楼层
LZ敢整点更有创意的不?兄弟们等着围观捏~
回复 支持 反对

使用道具 举报

37

主题

1522

帖子

4370

积分

4K家园VIP

Rank: 9Rank: 9Rank: 9

积分
4370
发表于 2022-9-6 11:08:51 | 显示全部楼层
无论是不是沙发都得回复下
回复 支持 反对

使用道具 举报

0

主题

55

帖子

780

积分

新手上路

Rank: 1

积分
780
发表于 2022-9-11 21:07:29 | 显示全部楼层
看禁闻http://v.ht/tttd 点击访问
回复

使用道具 举报

您需要登录后才可以回帖 登录 | 立即注册

本版积分规则

精彩图文
Archiver|手机版|TAG|Sitemap|新帖|专题|联系我们:邮箱: 4kjia.com@gmail.com   

4k家园   ©2019