[4K电影] 先驱者 / The Harbinger‎ (2022) 4K高清版本下载

[复制链接]

2327

主题

2476

帖子

1万

积分

超级版主

Rank: 8Rank: 8

积分
17940
 楼主| 发表于 2022-9-2 15:05:27 | 显示全部楼层 |阅读模式
QQ图片20220902142626_副本.png

◎译  名 先驱者 / 邪恶的预示
◎片  名 The Harbinger
◎年  代 2022
◎产  地 美国
◎类  别 悬疑 / 惊悚 / 恐怖
◎语  言 英语
◎上映日期 2022-09-02(美国)
◎IMDb评分 6.3/10 from 58 users 更新 : 2022-09-02
◎IMDb链接 https://www.imdb.com/title/tt7440124/
◎豆瓣评分 0/10 from 0 users
◎豆瓣链接 https://movie.douban.com/subject/30251406/
◎片  长 114分钟
◎导  演 威尔·克利普斯汀 Will Klipstine
◎编  剧 威尔·克利普斯汀 Klipstine / 艾米·米尔斯 Amy Mills
◎演  员 玛德琳·麦格劳 Madeleine McGraw
                   艾琳·贝达德 Irene Bedard
                   蒂尔雷德曼 Teal Redmann
                   史蒂夫·门罗 Steve Monroe
                   凯特·鲁本 Kate Luyben
                   阿曼达·麦克唐纳 Amanda MacDonald
                   杰里米·高纳 Jeremy Gauna
                   杰米·博齐安 Jamie Bozian
                   布鲁斯·博纳 Bruce Bohne  
                   文斯·杜瓦尔 Vince Duvall
                   里克·莫拉 Rick Mora
                   亚历克斯·加利克 Alex Galick
                   莎莉·安妮·亨特 Sally-Anne Hunt
                   威尔·克利普斯汀 Will Klipstine
                   查尔斯·哈贝尔 Charles Hubbell
                   艾米莉·弗雷登堡 Emily Fradenburgh
                   杰罗米,亲爱的 Jeromy Darling
                   科迪·琼斯 Cody Jones



◎简  介

  男人必须把女儿从永恒的诅咒中拯救出来。

Video
ID : 1
Format : HEVC
Format/Info : High Efficiency Video Coding
Format profile : Main 10@L5@High
Codec ID : V_MPEGH/ISO/HEVC
Duration : 1 h 54 min
Bit rate : 12.1 Mb/s
Width : 3 836 pixels
Height : 1 596 pixels
Display aspect ratio : 2.40:1
Frame rate mode : Constant
Frame rate : 23.976 FPS
Color space : YUV
Chroma subsampling : 4:2:0
Bit depth : 10 bits
Bits/(Pixel*Frame) : 0.082
Stream size : 9.66 GiB (97%)
Language : English
Default : Yes
Forced : No
Color range : Limited
Color primaries : BT.709
Transfer characteristics : BT.709
Matrix coefficients : BT.709

Audio
ID : 2
Format : AC-3
Format/Info : Audio Coding 3
Commercial name : Dolby Digital
Codec ID : A_AC3
Duration : 1 h 54 min
Bit rate mode : Constant
Bit rate : 384 kb/s
Channel(s) : 6 channels
Channel layout : L R C LFE Ls Rs
Sampling rate : 48.0 kHz
Frame rate : 31.250 FPS (1536 SPF)
Compression mode : Lossy
Stream size : 315 MiB (3%)
Language : English
Service kind : Complete Main
Default : Yes
Forced : No

Text #1
ID : 3
Format : UTF-8
Codec ID : S_TEXT/UTF8
Codec ID/Info : UTF-8 Plain Text
Duration : 1 h 54 min
Bit rate : 57 b/s
Frame rate : 0.279 FPS
Count of elements : 1909
Stream size : 48.4 KiB (0%)
Title : SDH
Language : English
Default : No
Forced : No

Text #2
ID : 4
Format : UTF-8
Codec ID : S_TEXT/UTF8
Codec ID/Info : UTF-8 Plain Text
Duration : 1 h 54 min
Bit rate : 52 b/s
Frame rate : 0.248 FPS
Count of elements : 1703
Stream size : 44.1 KiB (0%)
Language : English
Default : No
Forced : No

Menu
00:00:00.000 : Chapter 01
00:05:30.830 : Chapter 02
00:11:35.945 : Chapter 03
00:17:44.647 : Chapter 04
00:24:23.296 : Chapter 05
00:30:28.370 : Chapter 06
00:34:15.889 : Chapter 07
00:38:46.326 : Chapter 08
00:44:35.967 : Chapter 09
00:49:53.034 : Chapter 10
00:55:13.521 : Chapter 11
01:00:31.589 : Chapter 12
01:05:46.613 : Chapter 13
01:12:25.345 : Chapter 14
01:20:28.453 : Chapter 15
01:25:58.700 : Chapter 16
01:31:05.340 : Chapter 17
01:37:01.821 : Chapter 18
01:43:06.311 : Chapter 19
01:49:23.396 : Chapter 20

资源速度为零或资源敏感被和谐时,推荐使用qBittorrent等下载软件,有条件的推荐115更好的下载软件!

下载地址:


游客,如果您要查看本帖隐藏内容请回复






上一篇:埋葬 / Burial (2022) 4K高清版本下载
下一篇:交易室 / Wire Room‎ (2022) 4K高清版本下载
回复

使用道具 举报

2

主题

1385

帖子

4021

积分

4K家园VIP

Rank: 9Rank: 9Rank: 9

积分
4021
发表于 2022-9-2 15:05:31 | 显示全部楼层
支持,楼下的跟上哈~
回复 支持 反对

使用道具 举报

2

主题

1206

帖子

3636

积分

4K家园VIP

Rank: 9Rank: 9Rank: 9

积分
3636
发表于 2022-9-2 15:05:31 | 显示全部楼层
是爷们的娘们的都帮顶!大力支持
回复 支持 反对

使用道具 举报

0

主题

8663

帖子

2万

积分

4K家园VIP

Rank: 9Rank: 9Rank: 9

积分
20189
发表于 2022-9-2 15:14:46 | 显示全部楼层
太好啦&萬分感謝版主的無私發佈分享%
回复 支持 反对

使用道具 举报

0

主题

2

帖子

9

积分

新手上路

Rank: 1

积分
9
发表于 2022-9-4 16:52:07 | 显示全部楼层
大力支持
回复

使用道具 举报

2

主题

1487

帖子

4265

积分

4K家园VIP

Rank: 9Rank: 9Rank: 9

积分
4265
发表于 2022-9-25 20:54:07 | 显示全部楼层
非常好,顶一下
回复 支持 反对

使用道具 举报

2

主题

1348

帖子

3896

积分

4K家园VIP

Rank: 9Rank: 9Rank: 9

积分
3896
发表于 前天 22:58 | 显示全部楼层
占位编辑
回复 支持 反对

使用道具 举报

3

主题

1388

帖子

4182

积分

4K家园VIP

Rank: 9Rank: 9Rank: 9

积分
4182
发表于 1 小时前 | 显示全部楼层
怎么这么大,希望我电视能看啊
回复 支持 反对

使用道具 举报

您需要登录后才可以回帖 登录 | 立即注册

本版积分规则

精彩图文
Archiver|手机版|TAG|Sitemap|新帖|专题|联系我们:邮箱: 4kjia.com@gmail.com   

4k家园   ©2019