[4K电影] 兵临城下 / Enemy at the Gates (2001) 4K高清版本下载

[复制链接]

2327

主题

2476

帖子

1万

积分

超级版主

Rank: 8Rank: 8

积分
17940
 楼主| 发表于 2022-9-2 22:14:27 | 显示全部楼层 |阅读模式
本帖最后由 最爱4K哟 于 2022-9-10 12:32 编辑

QQ图片20220902221321_副本.png

◎译  名 兵临城下 / 决战中的较量 / 大敌当前(台) / 敌对边缘(港)
◎片  名 Enemy at the Gates
◎年  代 2001
◎产  地 爱尔兰 / 英国 / 法国 / 德国 / 美国
◎类  别 剧情 / 历史 / 战争
◎语  言 英语 / 德语 / 俄语
◎上映日期 2001-07-21(中国大陆) / 2001-02-07(柏林电影节) / 2001-03-16(英国/美国)
◎IMDb评分 7.6/10 from 261286 users 更新 : 2022-09-02
◎IMDb链接 https://www.imdb.com/title/tt0215750/
◎豆瓣评分 8.5/10 from 183585 users 更新 : 2022-09-02
◎豆瓣链接 https://movie.douban.com/subject/1301726/
◎片  长 131 分钟
◎导  演 让-雅克·阿诺 Jean-Jacques Annaud
◎编  剧 让-雅克·阿诺 Jean-Jacques Annaud / 阿兰·戈达尔 Alain Godard
◎演  员 裘德·洛 Jude Law
       艾德·哈里斯 Ed Harris
       蕾切尔·薇兹 Rachel Weisz
       约瑟夫·费因斯 Joseph Fiennes
       鲍勃·霍斯金斯 Bob Hoskins
       朗·普尔曼 Ron Perlman
       埃娃·马特斯 Eva Mattes
       加布瑞尔·汤姆森 Gabriel Thomson
       马蒂亚斯·哈比希 Matthias Habich
       索菲·罗伊斯 Sophie Rois
       伊万·舍甫多夫 Ivan Shvedoff
       汉斯·马丁·施蒂尔 Hans Martin Stier
       克雷蒙斯·施伊克 Clemens Schick
       莱恩·库德里亚维斯基 Lenn Kudrjawizki
       马克西姆·科瓦莱夫斯基 Maxim Kovalevski
       格纳迪·文格洛夫 Gennadi Vengerov
       达·范·汉森德 Dan van Husen
       Markus Majowski Markus Majowski
       罗伯特·施塔德洛伯 Robert Stadlober
       霍尔格·汉德克 Holger Handtke
       马克·比肖夫 Marc Bischoff
       马克·扎克 Mark Zak
       Thomas Petruo Thomas Petruo
       汤姆·拉斯齐哈 Tom Wlaschiha
       Dana Cebulla Dana Cebulla
       维尔纳·德恩 Werner Daehn
       波热尔·尤内尔 Birol Ünel
       Vladimir Vilanov Vladimir Vilanov
       迈克尔·施内克 Michael Schenk
       Axel Neumann Axel Neumann
       Toby Cockerell Toby Cockerell
       埃迪·约瑟夫 Eddy Joseph
       Martin Glyn Murray Martin Glyn Murray
       瓦伦丁·普拉塔里努 Valentin Platareanu
       金锋 Feng Jin
       曲敬国 Jingguo Qu
       Mikhail N. Matveev
       André Kaminski André Kaminski
       让-雅克·阿诺 Jean-Jacques Annaud
       詹姆斯·霍纳 James Horner
       罗伯特·弗赖斯 Robert Fraisse
       Humphrey Dixon Humphrey Dixon
       诺艾尔·泊松 Noëlle Boisson
       Dominic Masters Dominic Masters
       史蒂文·劳伦斯 Steven Lawrence
       沃尔夫·克罗伊格 Wolf Kroeger
       Neil Lamont Neil Lamont
       彼得·弗兰西斯 Peter Francis
       Simon Wakefield Simon Wakefield
       詹蒂·叶茨 Janty Yates
       琳达·德维塔 Linda DeVetta
       Hasso von Hugo Hasso von Hugo
       艾伦·史密斯 Allen Smith
       保罗·戈德史密斯 Paul Goldsmith
       马丁·希尔 Martin Hill
       乔迪·约翰逊 Jody Johnson
       Merrin Jensen Merrin Jensen
       Alex Hope Alex Hope
       保罗·J·富兰克林 Paul J. Franklin
       彼特·贝布 Pete Bebb
       Robin Aristorenas Robin Aristorenas
       Duncan Robson Duncan Robson
       Mark Topping Mark Topping
       皮特·汉森 Pete Hanson
       Moritz Glaesle Moritz Glaesle
       约翰·霍格沃德 Jan Hogevold
       加文·格雷厄姆 Gavin Graham
       Frank Wegerhoff Frank Wegerhoff
       Michael Illingworth Michael Illingworth
       弗雷泽·丘吉尔 Frazer Churchill
       理查德·贝恩 Richard Bain
       Åsa Svedberg Åsa Svedberg
       汤姆·伍德 Tom Wood
       托马斯·坦嫩伯格 Thomas Tannenberger
       Paul Riddle Paul Riddle
       查理·诺伯 Charlie Noble
       Gavin Toomey Gavin Toomey
       马克·尼尔姆斯 Mark Nelmes
       彼得·江 Peter Chiang
       Olcun Tan Olcun Tan
       彼得·迈泽尔斯 Peter Muyzers
       派迪·伊森 Paddy Eason
       Ed Hawkins Ed Hawkins
       萨姆·布里奇 Sam Breach


◎简  介


  斯大林格勒战役中,瓦西里(裘德•洛 Jude Law 饰)是一个威震部队的神枪手。他的好枪法百发百中,令敌人闻风丧胆。
为了激励士气,树立榜样,瓦西里的战友——苏军文宣部军官丹尼洛夫(约瑟夫•费因斯 Joseph Fiennes 饰)在报纸上大量刊登瓦西里的英雄事迹,令瓦西里的形象更为高大。然而,坦妮娅(雷切尔•薇姿 Rachel Weisz 饰)的出现,让瓦西里和丹尼洛夫都同时迷恋上了这个飒爽女兵。但塔妮娅喜欢的是瓦西里,这让丹尼洛夫大为妒忌。
另一方面,德军派出了他们的狙击手康尼(艾德•哈里斯 Ed Harris 饰),让同是神枪手的他抗衡瓦西里。在硝烟弥漫的战场上,瓦西里和康尼开始了斗智斗勇的决斗。

Video
ID : 1
Format : HEVC
Format/Info : High Efficiency Video Coding
Format profile : Main 10@L5@High
HDR format : Dolby Vision, Version 1.0, dvhe.05.06, BL+RPU
Codec ID : V_MPEGH/ISO/HEVC
Duration : 2 h 11 min
Bit rate : 24.8 Mb/s
Width : 3 840 pixels
Height : 1 634 pixels
Display aspect ratio : 2.35:1
Frame rate mode : Constant
Frame rate : 23.976 (24000/1001) FPS
Color space : YUV
Chroma subsampling : 4:2:0
Bit depth : 10 bits
Bits/(Pixel*Frame) : 0.165
Stream size : 22.7 GiB (75%)
Default : Yes
Forced : No

Audio #1
ID : 2
Format : MLP FBA
Format/Info : Meridian Lossless Packing FBA
Commercial name : Dolby TrueHD
Codec ID : A_TRUEHD
Duration : 2 h 11 min
Bit rate mode : Variable
Bit rate : 3 485 kb/s
Maximum bit rate : 4 950 kb/s
Channel(s) : 6 channels
Channel layout : L R C LFE Ls Rs
Sampling rate : 48.0 kHz
Frame rate : 1 200.000 FPS (40 SPF)
Compression mode : Lossless
Stream size : 3.19 GiB (10%)
Title : TrueHD 5.1
Language : English
Default : Yes
Forced : No

Audio #2
ID : 3
Format : DTS XLL
Format/Info : Digital Theater Systems
Commercial name : DTS-HD Master Audio
Codec ID : A_DTS
Duration : 2 h 11 min
Bit rate mode : Variable
Bit rate : 3 866 kb/s
Channel(s) : 6 channels
Channel layout : C L R Ls Rs LFE
Sampling rate : 48.0 kHz
Frame rate : 93.750 FPS (512 SPF)
Bit depth : 24 bits
Compression mode : Lossless
Stream size : 3.54 GiB (12%)
Title : DTS-HD MA 5.1
Language : English
Default : No
Forced : No

Audio #3
ID : 4
Format : AC-3
Format/Info : Audio Coding 3
Commercial name : Dolby Digital
Codec ID : A_AC3
Duration : 2 h 11 min
Bit rate mode : Constant
Bit rate : 640 kb/s
Channel(s) : 6 channels
Channel layout : L R C LFE Ls Rs
Sampling rate : 48.0 kHz
Frame rate : 31.250 FPS (1536 SPF)
Compression mode : Lossy
Stream size : 600 MiB (2%)
Title : DD 5.1
Language : English
Service kind : Complete Main
Default : No
Forced : No

Audio #4
ID : 5
Format : AC-3
Format/Info : Audio Coding 3
Commercial name : Dolby Digital
Codec ID : A_AC3
Duration : 2 h 11 min
Bit rate mode : Constant
Bit rate : 384 kb/s
Channel(s) : 6 channels
Channel layout : L R C LFE Ls Rs
Sampling rate : 48.0 kHz
Frame rate : 31.250 FPS (1536 SPF)
Compression mode : Lossy
Stream size : 360 MiB (1%)
Title : DD 5.1
Language : English
Service kind : Complete Main
Default : No
Forced : No

Text #1
ID : 6
Format : UTF-8
Codec ID : S_TEXT/UTF8
Codec ID/Info : UTF-8 Plain Text
Duration : 2 h 9 min
Bit rate : 39 b/s
Frame rate : 0.129 FPS
Count of elements : 1001
Stream size : 37.0 KiB (0%)
Language : English
Default : Yes
Forced : No

Text #2
ID : 7
Format : UTF-8
Codec ID : S_TEXT/UTF8
Codec ID/Info : UTF-8 Plain Text
Duration : 2 h 9 min
Bit rate : 44 b/s
Frame rate : 0.144 FPS
Count of elements : 1123
Stream size : 42.0 KiB (0%)
Title : SDH
Language : English
Default : No
Forced : No

Menu
00:00:00.000 : en:Chapter 01
00:02:46.708 : en:Chapter 02
00:09:47.754 : en:Chapter 03
00:15:11.327 : en:Chapter 04
00:22:09.954 : en:Chapter 05
00:34:13.178 : en:Chapter 06
00:37:08.228 : en:Chapter 07
00:46:18.778 : en:Chapter 08
00:50:44.753 : en:Chapter 09
00:56:05.573 : en:Chapter 10
01:02:40.802 : en:Chapter 11
01:08:23.978 : en:Chapter 12
01:16:35.845 : en:Chapter 13
01:22:36.456 : en:Chapter 14
01:29:49.556 : en:Chapter 15
01:35:51.960 : en:Chapter 16
01:42:05.041 : en:Chapter 17
01:55:02.360 : en:Chapter 18
01:57:27.213 : en:Chapter 19
02:01:20.113 : en:Chapter 20

资源速度为零或资源敏感被和谐时,推荐使用qBittorrent等下载软件,有条件的推荐115更好的下载软件!

下载地址:

游客,如果您要查看本帖隐藏内容请回复

游客,如果您要查看本帖隐藏内容请回复

游客,如果您要查看本帖隐藏内容请回复

游客,如果您要查看本帖隐藏内容请回复

游客,如果您要查看本帖隐藏内容请回复





上一篇:静水城 / Stillwater (2021) 4K高清版本下载
下一篇:沼泽深处的女孩 / Where the Crawdads Sing (2022)4K高清版本下载
回复

使用道具 举报

52

主题

1507

帖子

4389

积分

4K家园VIP

Rank: 9Rank: 9Rank: 9

积分
4389
发表于 2022-9-2 22:14:31 来自手机 | 显示全部楼层
正需要
回复 支持 反对

使用道具 举报

0

主题

5

帖子

30

积分

新手上路

Rank: 1

积分
30
发表于 2022-9-2 23:52:00 | 显示全部楼层
感谢分享
回复

使用道具 举报

0

主题

37

帖子

2464

积分

注册会员

Rank: 2

积分
2464
发表于 2022-9-3 00:21:14 | 显示全部楼层
感谢分享
回复

使用道具 举报

0

主题

108

帖子

4473

积分

4K家园VIP

Rank: 9Rank: 9Rank: 9

积分
4473
发表于 2022-9-3 06:08:52 | 显示全部楼层
没有中文字幕?
回复 支持 反对

使用道具 举报

0

主题

1

帖子

10

积分

新手上路

Rank: 1

积分
10
发表于 2022-9-3 12:14:41 | 显示全部楼层
111111111111111111111
回复 支持 反对

使用道具 举报

0

主题

2

帖子

12

积分

新手上路

Rank: 1

积分
12
发表于 2022-9-3 17:10:28 | 显示全部楼层
这个好  经典片
回复 支持 反对

使用道具 举报

0

主题

3

帖子

18

积分

新手上路

Rank: 1

积分
18
发表于 2022-9-3 19:11:14 | 显示全部楼层
好片子,谢谢楼主分享
回复 支持 反对

使用道具 举报

0

主题

2

帖子

9

积分

新手上路

Rank: 1

积分
9
发表于 2022-9-3 20:04:55 来自手机 | 显示全部楼层
感谢分享
回复

使用道具 举报

0

主题

2

帖子

15

积分

新手上路

Rank: 1

积分
15
发表于 2022-9-4 02:47:03 | 显示全部楼层
正在找这部的4K,非常感谢。
回复 支持 反对

使用道具 举报

您需要登录后才可以回帖 登录 | 立即注册

本版积分规则

精彩图文
Archiver|手机版|TAG|Sitemap|新帖|专题|联系我们:邮箱: 4kjia.com@gmail.com   

4k家园   ©2019