[4K美女视频] 2019美女模特韩国车展17 [2160/MP4/217MB]

[复制链接]

800

主题

883

帖子

5531

积分

超级版主

Rank: 8Rank: 8

积分
5531
 楼主| 发表于 4 天前 | 显示全部楼层 |阅读模式
本帖最后由 叽里呱啦 于 2019-7-10 22:18 编辑

2019美女模特韩国车展17.mp4_20190710_213459.403.jpg 2019美女模特韩国车展17.mp4_20190710_213534.396.jpg 2019美女模特韩国车展17.mp4_20190710_213550.483.jpg 2019美女模特韩国车展17.mp4_20190710_213555.883.jpg 2019美女模特韩国车展17.mp4.jpg

General
Complete name                  : 2019美女模特韩国车展\2019美女模特韩国车展17.mp4
Format                         : MPEG-4
Format profile                 : Base Media
Codec ID                       : isom (isom/iso2/avc1/mp41)
File size                      : 217 MiB
Duration                       : 2 min 1 s
Overall bit rate               : 15.0 Mb/s
Writing application            : EX1.4.4(C1.0.9)

Video
ID                             : 1
Format                         : AVC
Format/Info                    : Advanced Video Codec
Format profile                 : [email protected]
Format settings                : CABAC / 3 Ref Frames
Format settings, CABAC         : Yes
Format settings, Reference fra : 3 frames
Format settings, GOP           : M=3, N=60
Codec ID                       : avc1
Codec ID/Info                  : Advanced Video Coding
Duration                       : 2 min 1 s
Bit rate                       : 14.8 Mb/s
Width                          : 2 160 pixels
Height                         : 3 840 pixels
Display aspect ratio           : 0.563
Frame rate mode                : Constant
Frame rate                     : 29.970 (29970/1000) FPS
Color space                    : YUV
Chroma subsampling             : 4:2:0
Bit depth                      : 8 bits
Scan type                      : Progressive
Bits/(Pixel*Frame)             : 0.060
Stream size                    : 214 MiB (99%)
Codec configuration box        : avcC

Audio
ID                             : 2
Format                         : AAC LC
Format/Info                    : Advanced Audio Codec Low Complexity
Codec ID                       : mp4a-40-2
Duration                       : 2 min 1 s
Bit rate mode                  : Constant
Bit rate                       : 192 kb/s
Channel(s)                     : 2 channels
Channel layout                 : L R
Sampling rate                  : 48.0 kHz
Frame rate                     : 46.875 FPS (1024 SPF)
Compression mode               : Lossy
Stream size                    : 2.78 MiB (1%)
Default                        : Yes
Alternate group                : 1


网盘下载失效不补:链接: https://pan.baidu.com/s/1OsBYh9bJozmJXevDydrppA
****此区域为收费内容****    需支付 15 金币后可查看立即购买


1.gif







上一篇:2019 花博亚洲动漫创作展黑丝袜兔宝宝 [2160/MP4/145MB]
下一篇:韩国比基尼健美比赛现场实拍128 [2160/MP4/267MB]
回复

使用道具 举报

0

主题

1208

帖子

3228

积分

4K家园VIP

Rank: 9Rank: 9Rank: 9

积分
3228
发表于 4 天前 来自手机 | 显示全部楼层
占坑编辑ing
回复 支持 反对

使用道具 举报

0

主题

314

帖子

2080

积分

4K家园VIP

Rank: 9Rank: 9Rank: 9

积分
2080
QQ
发表于 4 天前 | 显示全部楼层
这系列全部收藏了!!
回复 支持 反对

使用道具 举报

0

主题

643

帖子

2745

积分

中级会员

Rank: 4

积分
2745
发表于 3 天前 | 显示全部楼层
楼主发贴辛苦了,谢谢楼主分享!我觉得来4K家园是注册对了!
回复 支持 反对

使用道具 举报

0

主题

878

帖子

2658

积分

4K家园VIP

Rank: 9Rank: 9Rank: 9

积分
2658
发表于 昨天 18:28 | 显示全部楼层
无论是不是沙发都得回复下
回复 支持 反对

使用道具 举报

0

主题

933

帖子

2811

积分

4K家园VIP

Rank: 9Rank: 9Rank: 9

积分
2811
发表于 7 小时前 | 显示全部楼层
有4K版啦,下个看下
回复 支持 反对

使用道具 举报

您需要登录后才可以回帖 登录 | 立即注册

本版积分规则

精彩图文
关闭

站长推荐上一条 /2 下一条

4k家园   ©2019