[4K美女视频] 韩国比基尼健美比赛现场实拍128 [2160/MP4/267MB]

[复制链接]

800

主题

883

帖子

5531

积分

超级版主

Rank: 8Rank: 8

积分
5531
 楼主| 发表于 4 天前 | 显示全部楼层 |阅读模式

韩国比基尼健美比赛现场实拍128.mp4_20190710_214030.427.jpg 韩国比基尼健美比赛现场实拍128.mp4_20190710_214040.596.jpg 韩国比基尼健美比赛现场实拍128.mp4_20190710_214051.132.jpg 韩国比基尼健美比赛现场实拍128.mp4_20190710_214103.156.jpg

General
Complete name                  : 4K视频\韩国比基尼健美比赛现场实拍128.mp4
Format                         : MPEG-4
Format profile                 : Base Media
Codec ID                       : isom (isom/iso2/avc1/mp41)
File size                      : 268 MiB
Duration                       : 2 min 20 s
Overall bit rate               : 16.0 Mb/s
Writing application            : Lavf58.12.100

Video
ID                             : 1
Format                         : AVC
Format/Info                    : Advanced Video Codec
Format profile                 : [email protected]
Format settings                : CABAC / 4 Ref Frames
Format settings, CABAC         : Yes
Format settings, Reference fra : 4 frames
Codec ID                       : avc1
Codec ID/Info                  : Advanced Video Coding
Duration                       : 2 min 20 s
Bit rate                       : 16.0 Mb/s
Width                          : 3 840 pixels
Height                         : 2 160 pixels
Display aspect ratio           : 16:9
Frame rate mode                : Constant
Frame rate                     : 29.000 FPS
Color space                    : YUV
Chroma subsampling             : 4:2:0
Bit depth                      : 8 bits
Scan type                      : Progressive
Bits/(Pixel*Frame)             : 0.067
Stream size                    : 265 MiB (99%)
Writing library                : x264 core 148
Encoding settings              : cabac=1 / ref=3 / deblock=1:0:0 / analyse=0x3:0x113 / me=hex / subme=7 / psy=1 / psy_rd=1.00:0.00 / mixed_ref=1 / me_range=16 / chroma_me=1 / trellis=1 / 8x8dct=1 / cqm=0 / deadzone=21,11 / fast_pskip=1 / chroma_qp_offset=-2 / threads=6 / lookahead_threads=1 / sliced_threads=0 / nr=0 / decimate=1 / interlaced=0 / bluray_compat=0 / constrained_intra=0 / bframes=3 / b_pyramid=2 / b_adapt=1 / b_bias=0 / direct=1 / weightb=1 / open_gop=0 / weightp=2 / keyint=250 / keyint_min=25 / scenecut=40 / intra_refresh=0 / rc_lookahead=40 / rc=abr / mbtree=1 / bitrate=16000 / ratetol=1.0 / qcomp=0.60 / qpmin=0 / qpmax=69 / qpstep=4 / ip_ratio=1.40 / aq=1:1.00
Language                       : English
Codec configuration box        : avcC

Audio
ID                             : 2
Format                         : AAC LC
Format/Info                    : Advanced Audio Codec Low Complexity
Codec ID                       : mp4a-40-2
Duration                       : 2 min 20 s
Duration_LastFrame             : -16 ms
Bit rate mode                  : Constant
Bit rate                       : 128 kb/s
Channel(s)                     : 2 channels
Channel layout                 : L R
Sampling rate                  : 44.1 kHz
Frame rate                     : 43.066 FPS (1024 SPF)
Compression mode               : Lossy
Stream size                    : 2.14 MiB (1%)
Language                       : English
Default                        : Yes
Alternate group                : 1





网盘下载失效不补:链接: https://pan.baidu.com/s/1JwRTF1tZvi7ICK9ThtySwQ
****此区域为收费内容****    需支付 15 金币后可查看立即购买


1.gif




.
韩国比基尼健美比赛现场实拍128.mp4.jpg

上一篇:2019美女模特韩国车展17 [2160/MP4/217MB]
下一篇:2019比基尼泳装美女西门町外拍2 [2160/MP4/726MB]
回复

使用道具 举报

0

主题

941

帖子

2657

积分

中级会员

Rank: 4

积分
2657
发表于 4 天前 来自手机 | 显示全部楼层
支持楼主,用户楼主,楼主英明呀!!!
回复 支持 反对

使用道具 举报

41

主题

1058

帖子

2962

积分

4K家园VIP

Rank: 9Rank: 9Rank: 9

积分
2962
发表于 4 天前 | 显示全部楼层
不错 支持一个了
回复 支持 反对

使用道具 举报

0

主题

741

帖子

2237

积分

4K家园VIP

Rank: 9Rank: 9Rank: 9

积分
2237
发表于 4 天前 | 显示全部楼层
多发些资源啊
回复 支持 反对

使用道具 举报

0

主题

643

帖子

2745

积分

中级会员

Rank: 4

积分
2745
发表于 3 天前 | 显示全部楼层

感谢楼主分享,我默默顶一下,楼主再接再厉!
回复 支持 反对

使用道具 举报

0

主题

1242

帖子

3328

积分

4K家园VIP

Rank: 9Rank: 9Rank: 9

积分
3328
发表于 3 天前 | 显示全部楼层
1v1飘过
回复 支持 反对

使用道具 举报

0

主题

895

帖子

2705

积分

4K家园VIP

Rank: 9Rank: 9Rank: 9

积分
2705
发表于 前天 01:01 | 显示全部楼层
差评
回复 支持 反对

使用道具 举报

您需要登录后才可以回帖 登录 | 立即注册

本版积分规则

精彩图文
关闭

站长推荐上一条 /2 下一条

4k家园   ©2019