[4K美女视频] 2019比基尼泳装美女西门町外拍2 [2160/MP4/726MB]

[复制链接]

861

主题

944

帖子

5922

积分

超级版主

Rank: 8Rank: 8

积分
5922
 楼主| 发表于 2019-7-13 10:58:19 | 显示全部楼层 |阅读模式

2019比基尼泳装美女西门町外拍2.mp4_20190710_214426.971.jpg 2019比基尼泳装美女西门町外拍2.mp4_20190710_214438.284.jpg 2019比基尼泳装美女西门町外拍2.mp4_20190710_214510.100.jpg 2019比基尼泳装美女西门町外拍2.mp4_20190710_214516.468.jpg 2019比基尼泳装美女西门町外拍2.mp4.jpg

General
Complete name                  : 4K视频\2019比基尼泳装美女西门町外拍2.mp4
Format                         : MPEG-4
Format profile                 : Base Media
Codec ID                       : isom (isom/iso2/avc1/mp41)
File size                      : 727 MiB
Duration                       : 6 min 26 s
Overall bit rate               : 15.8 Mb/s
Writing application            : Lavf58.12.100

Video
ID                             : 1
Format                         : AVC
Format/Info                    : Advanced Video Codec
Format profile                 : [email protected]
Format settings                : CABAC / 4 Ref Frames
Format settings, CABAC         : Yes
Format settings, Reference fra : 4 frames
Codec ID                       : avc1
Codec ID/Info                  : Advanced Video Coding
Duration                       : 6 min 26 s
Bit rate                       : 16.0 Mb/s
Width                          : 3 836 pixels
Height                         : 1 884 pixels
Display aspect ratio           : 2.036
Frame rate mode                : Constant
Frame rate                     : 29.000 FPS
Color space                    : YUV
Chroma subsampling             : 4:2:0
Bit depth                      : 8 bits
Scan type                      : Progressive
Bits/(Pixel*Frame)             : 0.076
Stream size                    : 721 MiB (99%)
Writing library                : x264 core 148
Encoding settings              : cabac=1 / ref=3 / deblock=1:0:0 / analyse=0x3:0x113 / me=hex / subme=7 / psy=1 / psy_rd=1.00:0.00 / mixed_ref=1 / me_range=16 / chroma_me=1 / trellis=1 / 8x8dct=1 / cqm=0 / deadzone=21,11 / fast_pskip=1 / chroma_qp_offset=-2 / threads=6 / lookahead_threads=1 / sliced_threads=0 / nr=0 / decimate=1 / interlaced=0 / bluray_compat=0 / constrained_intra=0 / bframes=3 / b_pyramid=2 / b_adapt=1 / b_bias=0 / direct=1 / weightb=1 / open_gop=0 / weightp=2 / keyint=250 / keyint_min=25 / scenecut=40 / intra_refresh=0 / rc_lookahead=40 / rc=abr / mbtree=1 / bitrate=16000 / ratetol=1.0 / qcomp=0.60 / qpmin=0 / qpmax=69 / qpstep=4 / ip_ratio=1.40 / aq=1:1.00
Language                       : English
Codec configuration box        : avcC

Audio
ID                             : 2
Format                         : AAC LC
Format/Info                    : Advanced Audio Codec Low Complexity
Codec ID                       : mp4a-40-2
Duration                       : 6 min 26 s
Bit rate mode                  : Constant
Bit rate                       : 129 kb/s
Channel(s)                     : 2 channels
Channel layout                 : L R
Sampling rate                  : 44.1 kHz
Frame rate                     : 43.066 FPS (1024 SPF)
Compression mode               : Lossy
Stream size                    : 5.95 MiB (1%)
Language                       : English
Default                        : Yes
Alternate group                : 1





网盘下载失效不补:链接: https://pan.baidu.com/s/1CkSdcXy9wEDXtNT3y4QZ_Q
****此区域为收费内容****    需支付 15 金币后可查看立即购买


1.gif


.

上一篇:韩国比基尼健美比赛现场实拍128 [2160/MP4/267MB]
下一篇:2019赛车模特恩菲釜山二手车博览会 [2160/MP4/316MB]
回复

使用道具 举报

31

主题

1049

帖子

2955

积分

4K家园VIP

Rank: 9Rank: 9Rank: 9

积分
2955
发表于 2019-7-13 10:58:24 | 显示全部楼层
感谢分享
回复 支持 反对

使用道具 举报

0

主题

1172

帖子

3084

积分

4K家园VIP

Rank: 9Rank: 9Rank: 9

积分
3084
发表于 2019-7-13 15:05:16 | 显示全部楼层
鄙视楼下的顶帖没我快,哈哈
回复 支持 反对

使用道具 举报

0

主题

2

帖子

45

积分

新手上路

Rank: 1

积分
45
发表于 2019-7-13 17:22:45 | 显示全部楼层

感谢楼主分享,我默默顶一下,楼主再接再厉!
回复 支持 反对

使用道具 举报

0

主题

324

帖子

2184

积分

4K家园VIP

Rank: 9Rank: 9Rank: 9

积分
2184
QQ
发表于 2019-7-13 20:06:48 | 显示全部楼层
老大终于补回上次重复的帖子了,值得赞扬!!
回复 支持 反对

使用道具 举报

0

主题

1217

帖子

3255

积分

4K家园VIP

Rank: 9Rank: 9Rank: 9

积分
3255
发表于 2019-7-13 23:00:43 | 显示全部楼层
沙发???
回复 支持 反对

使用道具 举报

44

主题

1046

帖子

2924

积分

4K家园VIP

Rank: 9Rank: 9Rank: 9

积分
2924
发表于 2019-7-13 23:11:22 来自手机 | 显示全部楼层
楼猪辛苦了,支持一下分享好资源
回复 支持 反对

使用道具 举报

0

主题

649

帖子

2775

积分

中级会员

Rank: 4

积分
2775
发表于 2019-7-14 00:37:10 | 显示全部楼层
楼主发贴辛苦了,谢谢楼主分享!我觉得来4K家园是注册对了!
回复 支持 反对

使用道具 举报

41

主题

1028

帖子

2908

积分

4K家园VIP

Rank: 9Rank: 9Rank: 9

积分
2908
发表于 2019-7-14 06:38:31 来自手机 | 显示全部楼层
撸过
回复 支持 反对

使用道具 举报

0

主题

356

帖子

1999

积分

中级会员

Rank: 4

积分
1999
发表于 2019-7-14 10:08:22 | 显示全部楼层
感谢分享
回复

使用道具 举报

您需要登录后才可以回帖 登录 | 立即注册

本版积分规则

精彩图文
关闭

站长推荐上一条 /2 下一条

4k家园   ©2019