[4K美女视频] 2019第10届台湾小姐泳装赛5号参赛者走秀 [2160/MP4/226MB]

[复制链接]

1347

主题

1497

帖子

1万

积分

超级版主

Rank: 8Rank: 8

积分
10536
 楼主| 发表于 2019-7-12 20:15:14 | 显示全部楼层 |阅读模式

2019第10届台湾小姐泳装赛5号参赛者走秀.mp4_20190710_215224.306.jpg 2019第10届台湾小姐泳装赛5号参赛者走秀.mp4_20190710_215243.901.jpg 2019第10届台湾小姐泳装赛5号参赛者走秀.mp4_20190710_215256.589.jpg 2019第10届台湾小姐泳装赛5号参赛者走秀.mp4_20190710_215304.860.jpg 2019第10届台湾小姐泳装赛5号参赛者走秀.mp4.jpg

General
Complete name                  : 4K视频\2019第10届台湾小姐泳装赛5号参赛者走秀.mp4
Format                         : MPEG-4
Format profile                 : Base Media
Codec ID                       : isom (isom/iso2/avc1/mp41)
File size                      : 226 MiB
Duration                       : 2 min 5 s
Overall bit rate               : 15.1 Mb/s
Writing application            : Lavf58.12.100

Video
ID                             : 1
Format                         : AVC
Format/Info                    : Advanced Video Codec
Format profile                 : High@L5.1
Format settings                : CABAC / 4 Ref Frames
Format settings, CABAC         : Yes
Format settings, Reference fra : 4 frames
Codec ID                       : avc1
Codec ID/Info                  : Advanced Video Coding
Duration                       : 2 min 5 s
Bit rate                       : 15.0 Mb/s
Width                          : 3 836 pixels
Height                         : 1 936 pixels
Display aspect ratio           : 1.981
Frame rate mode                : Constant
Frame rate                     : 29.000 FPS
Color space                    : YUV
Chroma subsampling             : 4:2:0
Bit depth                      : 8 bits
Scan type                      : Progressive
Bits/(Pixel*Frame)             : 0.070
Stream size                    : 224 MiB (99%)
Writing library                : x264 core 148
Encoding settings              : cabac=1 / ref=3 / deblock=1:0:0 / analyse=0x3:0x113 / me=hex / subme=7 / psy=1 / psy_rd=1.00:0.00 / mixed_ref=1 / me_range=16 / chroma_me=1 / trellis=1 / 8x8dct=1 / cqm=0 / deadzone=21,11 / fast_pskip=1 / chroma_qp_offset=-2 / threads=6 / lookahead_threads=1 / sliced_threads=0 / nr=0 / decimate=1 / interlaced=0 / bluray_compat=0 / constrained_intra=0 / bframes=3 / b_pyramid=2 / b_adapt=1 / b_bias=0 / direct=1 / weightb=1 / open_gop=0 / weightp=2 / keyint=250 / keyint_min=25 / scenecut=40 / intra_refresh=0 / rc_lookahead=40 / rc=abr / mbtree=1 / bitrate=15000 / ratetol=1.0 / qcomp=0.60 / qpmin=0 / qpmax=69 / qpstep=4 / ip_ratio=1.40 / aq=1:1.00
Language                       : English
Codec configuration box        : avcC

Audio
ID                             : 2
Format                         : AAC LC
Format/Info                    : Advanced Audio Codec Low Complexity
Codec ID                       : mp4a-40-2
Duration                       : 2 min 5 s
Bit rate mode                  : Constant
Bit rate                       : 129 kb/s
Channel(s)                     : 2 channels
Channel layout                 : L R
Sampling rate                  : 44.1 kHz
Frame rate                     : 43.066 FPS (1024 SPF)
Compression mode               : Lossy
Stream size                    : 1.93 MiB (1%)
Language                       : English
Default                        : Yes
Alternate group                : 1



网盘下载失效不补:链接: https://pan.baidu.com/s/15gnUpkUhRip6GAYlf1Jfdw
****此区域为收费内容****    需支付 15 金币后可查看立即购买


1.gif




上一篇:2019赛车模特恩菲釜山二手车博览会 [2160/MP4/316MB]
下一篇:2019 少女时代-宋珠雅直拍 [2160/MP4/573MB]
回复

使用道具 举报

57

主题

1130

帖子

3212

积分

4K家园VIP

Rank: 9Rank: 9Rank: 9

积分
3212
发表于 2019-7-12 20:15:18 | 显示全部楼层
怎么这么大,希望我电视能看啊
回复 支持 反对

使用道具 举报

1

主题

499

帖子

4096

积分

4K家园VIP

Rank: 9Rank: 9Rank: 9

积分
4096
QQ
发表于 2019-7-12 20:57:36 | 显示全部楼层
这系列全部收藏了!!
回复 支持 反对

使用道具 举报

48

主题

1149

帖子

3269

积分

4K家园VIP

Rank: 9Rank: 9Rank: 9

积分
3269
发表于 2019-7-12 22:46:27 | 显示全部楼层
撸过
回复 支持 反对

使用道具 举报

0

主题

888

帖子

3781

积分

中级会员

Rank: 4

积分
3781
发表于 2019-7-13 00:15:13 | 显示全部楼层
楼主发贴辛苦了,谢谢楼主分享!我觉得来4K家园是注册对了!
回复 支持 反对

使用道具 举报

57

主题

1170

帖子

3358

积分

4K家园VIP

Rank: 9Rank: 9Rank: 9

积分
3358
发表于 2019-7-13 05:11:52 来自手机 | 显示全部楼层
学习下
回复 支持 反对

使用道具 举报

1

主题

1053

帖子

3001

积分

4K家园VIP

Rank: 9Rank: 9Rank: 9

积分
3001
发表于 2019-7-14 11:31:33 来自手机 | 显示全部楼层
好帖必须得顶起
回复 支持 反对

使用道具 举报

0

主题

972

帖子

2930

积分

4K家园VIP

Rank: 9Rank: 9Rank: 9

积分
2930
发表于 2019-7-14 16:04:58 | 显示全部楼层
楼猪辛苦了,支持一下分享好资源
回复 支持 反对

使用道具 举报

0

主题

1万

帖子

1万

积分

论坛元老

Rank: 8Rank: 8

积分
15716
发表于 2019-9-29 20:15:03 | 显示全部楼层
楼主,我太崇拜你了!我想我是一天也不能离开4K家园。
回复 支持 反对

使用道具 举报

您需要登录后才可以回帖 登录 | 立即注册

本版积分规则

精彩图文
关闭

站长推荐上一条 /1 下一条

Archiver|手机版|TAG|Sitemap|新帖|专题|联系我们:邮箱: 4kjia.com@gmail.com   

4k家园   ©2019