[韩国4KMV]樱桃子弹-真的 真的 [2016P/M4P/368MB]

[复制链接]

861

主题

944

帖子

5922

积分

超级版主

Rank: 8Rank: 8

积分
5922
 楼主| 发表于 2019-7-12 20:55:49 | 显示全部楼层 |阅读模式

[韩国4KMV]樱桃子弹-真的 真的.webm_20190712_205115.478.jpg [韩国4KMV]樱桃子弹-真的 真的.webm_20190712_205122.807.jpg [韩国4KMV]樱桃子弹-真的 真的.webm_20190712_205127.398.jpg [韩国4KMV]樱桃子弹-真的 真的.webm_20190712_205133.999.jpg [韩国4KMV]樱桃子弹-真的 真的.webm_20190712_205149.943.jpg [韩国4KMV]樱桃子弹-真的 真的.webm.jpg

General
Complete name                  : [韩国4KMV]樱桃子弹-真的 真的.webm
Format                         : WebM
Format version                 : Version 2
File size                      : 369 MiB
Duration                       : 3 min 17 s
Overall bit rate mode          : Variable
Overall bit rate               : 15.7 Mb/s
Writing application            : Lavf58.20.100
Writing library                : Lavf58.20.100

Video
ID                             : 1
Format                         : VP9
Codec ID                       : V_VP9
Duration                       : 3 min 17 s
Bit rate                       : 14.9 Mb/s
Width                          : 3 840 pixels
Height                         : 2 160 pixels
Display aspect ratio           : 16:9
Frame rate mode                : Constant
Frame rate                     : 23.976 (24000/1001) FPS
Color space                    : YUV
Bits/(Pixel*Frame)             : 0.075
Stream size                    : 351 MiB (95%)
Language                       : English
Default                        : Yes
Forced                         : No
Color range                    : Limited
Color primaries                : BT.709
Transfer characteristics       : BT.709
Matrix coefficients            : BT.709

Audio
ID                             : 2
Format                         : Vorbis
Format settings, Floor         : 1
Codec ID                       : A_VORBIS
Duration                       : 3 min 17 s
Bit rate mode                  : Variable
Bit rate                       : 128 kb/s
Channel(s)                     : 2 channels
Sampling rate                  : 44.1 kHz
Compression mode               : Lossy
Stream size                    : 3.01 MiB (1%)
Writing application            : Google
Language                       : English
Default                        : Yes
Forced                         : No



网盘下载失效请告知:链接: https://pan.baidu.com/s/1Uwq3pvLPmcxpEg70lS6qWw
****此区域为收费内容****    需支付 30 金币后可查看立即购买


1.gif



上一篇:[韩国4KMV] 红色天鹅绒 - Zimzalabim [2160P/MP4/378MB]
回复

使用道具 举报

40

主题

1074

帖子

3018

积分

4K家园VIP

Rank: 9Rank: 9Rank: 9

积分
3018
发表于 2019-7-12 20:55:54 | 显示全部楼层
4K应该不错,我也下个看看
回复 支持 反对

使用道具 举报

0

主题

649

帖子

2775

积分

中级会员

Rank: 4

积分
2775
发表于 2019-7-13 00:14:50 | 显示全部楼层

4K家园赞一个!
回复 支持 反对

使用道具 举报

0

主题

872

帖子

2462

积分

4K家园VIP

Rank: 9Rank: 9Rank: 9

积分
2462
发表于 2019-7-14 22:59:11 | 显示全部楼层
打酱油的人拉,回复下赚取积分
回复 支持 反对

使用道具 举报

0

主题

880

帖子

2468

积分

4K家园VIP

Rank: 9Rank: 9Rank: 9

积分
2468
发表于 2019-7-15 07:24:14 | 显示全部楼层
呵呵,低调,低调!
回复 支持 反对

使用道具 举报

0

主题

9

帖子

44

积分

新手上路

Rank: 1

积分
44
发表于 2019-7-16 21:49:51 | 显示全部楼层
4K内容不错。赞
回复 支持 反对

使用道具 举报

0

主题

1193

帖子

3193

积分

4K家园VIP

Rank: 9Rank: 9Rank: 9

积分
3193
发表于 7 天前 | 显示全部楼层
路过的帮顶
回复 支持 反对

使用道具 举报

34

主题

1070

帖子

3004

积分

4K家园VIP

Rank: 9Rank: 9Rank: 9

积分
3004
发表于 7 天前 | 显示全部楼层
什么东西啊
回复 支持 反对

使用道具 举报

您需要登录后才可以回帖 登录 | 立即注册

本版积分规则

精彩图文
关闭

站长推荐上一条 /2 下一条

4k家园   ©2019