[DIY简繁 4K蓝光原盘] 小黄人大眼萌 [DIY简繁&英文] (2022) 4K蓝光[原盘+REMUX]版本下载

  [复制链接]

主题

帖子

0

积分

超级版主

Rank: 8Rank: 8

积分
0
 楼主| 发表于 2022-9-6 12:52:16 | 显示全部楼层 |阅读模式
本帖最后由 最爱4K哟 于 2022-9-7 14:10 编辑

p2877204848_副本.jpg

◎译  名 小黄人大眼萌:神偷奶爸前传/迷你兵团Ⅱ(港)/小黄人2:格鲁的崛起/小黄人大电影Ⅱ/小黄人大眼萌2:格鲁的崛起/小黄人大眼萌Ⅱ/小黄人Ⅱ/小小兵2:格鲁的崛起(台)/小小兵Ⅱ(台)/Minions 2
◎片  名 Minions: The Rise of Gru
◎年  代 2022
◎产  地 美国
◎类  别 喜剧/动画/冒险
◎语  言 英语
◎上映日期 2022-06-13(安锡国际动画节)/2022-07-01(美国)
◎IMDb评分 6.6/10 from 48945 users 更新 : 2022-09-04
◎IMDb链接 https://www.imdb.com/title/tt5113044/
◎豆瓣评分 7.1/10 from 95558 users 更新 : 2022-09-06
◎豆瓣链接 https://douban.com/subject/26642033/
◎片  长 87分钟
◎导  演 凯尔·巴尔达 Kyle Balda / 布拉德·埃布尔森 Brad Ableson / 何塞·瓦尔德尔·奥马尔 José Val del Omar
◎编  剧 马修·福格尔 Matthew Fogel / 布莱恩·林奇 Brian Lynch / 辛科·保罗 Cinco Paul
◎主  演 史蒂夫·卡瑞尔 Steve Carell
       皮埃尔·柯芬 Pierre Coffin
       艾伦·阿金 Alan Arkin
       塔拉吉·P·汉森 Taraji P. Henson
       杨紫琼 Michelle Yeoh
       朱莉·安德鲁斯 Julie Andrews
       拉塞尔·布兰德 Russell Brand
       尚格·云顿 Jean-Claude Van Damme
       杜夫·龙格尔 Dolph Lundgren
       丹尼·特雷霍 Danny Trejo
       露西·劳莱丝 Lucy Lawless
       欧阳万成 Jimmy O. Yang
       凯文·迈克尔·理查德森 Kevin Michael Richardson
       约翰·迪·马吉欧 John Di Maggio
       罗伯特·菲茨杰拉德·迪格斯 RZA
       迈克尔·贝亚蒂 Michael Beattie
       威尔·阿奈特 Will Arnett
       史蒂夫·库根 Steve Coogan
       雷蒙德·S·佩尔西 Raymond S. Persi
       凯尔·巴尔达 Kyle Balda
       鲍伯·伯根 Bob Bergen
       比务·比林格斯勒拉 Beau Billingslea
       大卫·陈 David Chen
       梅里·康德伦 Meilee Condron
       安东尼奥·劳尔·科尔波 Antonio Raul Corbo
       黛比·德里贝里 Debi Derryberry
       斯嘉丽·艾斯特维兹 Scarlett Estevez
       杰克·格林 Jake Green
       雷蒙·汉密尔顿 Ramone Hamilton
       亚伦·亨德利 Aaron Hendry
       山姆·拉瓦尼诺 Sam Lavagnino
       达恩·刘易斯 Dawnn Lewis
       阿玛丽·麦考伊 Amari McCoy
       内芙·沙雷尔 Nev Scharrel
       詹姆士·谢 James Sie
       明迪·斯特林 Mindy Sterling
       弗雷德·塔特西奥 Fred Tatasciore
       雷吉纳·托芬 Regina Taufen
       黛布拉·威尔逊 Debra Wilson
       凯文·哈特 Kevin Hart
       玛格特·罗比 Margot Robbie
       戴夫·巴蒂斯塔 Dave Bautista

◎简  介

  这部新片将是2015年推出的小黄人独立电影《小黄人大眼萌》的直接续集。它作为《神偷奶爸》的衍生作品,讲述了小黄人们在“前格鲁”时代为其他主人服务的经历,不过少年格鲁曾经出现在这部衍生电影里,续集将围绕他与小黄人们结缘的过程展开剧情。

General
Complete name                  : D:\电影\Minions.The.Rise.of.Gru.2022.2160p.BluRay.HEVC.TrueHD.7.1.Atmos-MT\BDMV\STREAM\00007.mkv
Format                         : Matroska
Format version                 : Version 4
File size                      : 54.5 GiB
Duration                       : 1 h 27 min
Overall bit rate mode          : Variable
Overall bit rate               : 89.2 Mb/s
Encoded date                   : UTC 2022-09-06 02:53:41
Writing application            : mkvmerge v68.0.0 ('The Curtain') 64-bit
Writing library                : libebml v1.4.2 + libmatroska v1.6.4

Video #1
ID                             : 1
Format                         : HEVC
Format/Info                    : High Efficiency Video Coding
Format profile                 : Main 10@L5.1@High
HDR format                     : SMPTE ST 2086, HDR10 compatible
Codec ID                       : V_MPEGH/ISO/HEVC
Duration                       : 1 h 27 min
Bit rate                       : 75.5 Mb/s
Width                          : 3 840 pixels
Height                         : 2 160 pixels
Display aspect ratio           : 16:9
Frame rate mode                : Constant
Frame rate                     : 23.976 (24000/1001) FPS
Color space                    : YUV
Chroma subsampling             : 4:2:0 (Type 2)
Bit depth                      : 10 bits
Bits/(Pixel*Frame)             : 0.380
Stream size                    : 46.1 GiB (85%)
Title                          : 中文简体&英文
Language                       : Chinese
Default                        : Yes
Forced                         : No
Color range                    : Limited
Color primaries                : BT.2020
Transfer characteristics       : PQ
Matrix coefficients            : BT.2020 non-constant
Mastering display color primar : Display P3
Mastering display luminance    : min: 0.0001 cd/m2, max: 1000 cd/m2
Maximum Content Light Level    : 1000 cd/m2
Maximum Frame-Average Light Le : 719 cd/m2

Video #2
ID                             : 2
Format                         : HEVC
Format/Info                    : High Efficiency Video Coding
Format profile                 : Main 10@L5.1@High
HDR format                     : SMPTE ST 2086, HDR10 compatible
Codec ID                       : V_MPEGH/ISO/HEVC
Duration                       : 1 h 27 min
Bit rate                       : 8 496 kb/s
Width                          : 1 920 pixels
Height                         : 1 080 pixels
Display aspect ratio           : 16:9
Frame rate mode                : Constant
Frame rate                     : 23.976 (24000/1001) FPS
Color space                    : YUV
Chroma subsampling             : 4:2:0 (Type 2)
Bit depth                      : 10 bits
Bits/(Pixel*Frame)             : 0.171
Stream size                    : 5.19 GiB (10%)
Default                        : Yes
Forced                         : No
Color range                    : Limited
Color primaries                : BT.2020
Transfer characteristics       : PQ
Matrix coefficients            : BT.2020 non-constant
Mastering display color primar : Display P3
Mastering display luminance    : min: 0.0001 cd/m2, max: 1000 cd/m2

Audio #1
ID                             : 3
Format                         : MLP FBA 16-ch
Format/Info                    : Meridian Lossless Packing FBA with 16-channel presentation
Commercial name                : Dolby TrueHD with Dolby Atmos
Codec ID                       : A_TRUEHD
Duration                       : 1 h 27 min
Bit rate mode                  : Variable
Bit rate                       : 3 245 kb/s
Maximum bit rate               : 4 368 kb/s
Channel(s)                     : 8 channels
Channel layout                 : L R C LFE Ls Rs Lb Rb
Sampling rate                  : 48.0 kHz
Frame rate                     : 1 200.000 FPS (40 SPF)
Compression mode               : Lossless
Stream size                    : 1.98 GiB (4%)
Language                       : English
Default                        : Yes
Forced                         : No
Number of dynamic objects      : 11
Bed channel count              : 1 channel
Bed channel configuration      : LFE

Audio #2
ID                             : 4
Format                         : AC-3
Format/Info                    : Audio Coding 3
Commercial name                : Dolby Digital
Codec ID                       : A_AC3
Duration                       : 1 h 27 min
Bit rate mode                  : Constant
Bit rate                       : 448 kb/s
Channel(s)                     : 6 channels
Channel layout                 : L R C LFE Ls Rs
Sampling rate                  : 48.0 kHz
Frame rate                     : 31.250 FPS (1536 SPF)
Compression mode               : Lossy
Stream size                    : 280 MiB (0%)
Language                       : English
Service kind                   : Complete Main
Default                        : Yes
Forced                         : No

Audio #3
ID                             : 5
Format                         : E-AC-3
Format/Info                    : Enhanced AC-3
Commercial name                : Dolby Digital Plus
Format profile                 : Blu-ray Disc
Codec ID                       : A_EAC3
Duration                       : 1 h 27 min
Bit rate mode                  : Constant
Bit rate                       : 768 kb/s
Channel(s)                     : 8 channels
Channel layout                 : L R C LFE Ls Rs Lb Rb
Sampling rate                  : 48.0 kHz
Frame rate                     : 31.250 FPS (1536 SPF)
Compression mode               : Lossy
Stream size                    : 480 MiB (1%)
Language                       : Spanish
Service kind                   : Complete Main
Default                        : Yes
Forced                         : No

Audio #4
ID                             : 6
Format                         : AC-3
Format/Info                    : Audio Coding 3
Commercial name                : Dolby Digital
Codec ID                       : A_AC3
Duration                       : 1 h 27 min
Bit rate mode                  : Constant
Bit rate                       : 640 kb/s
Channel(s)                     : 6 channels
Channel layout                 : L R C LFE Ls Rs
Sampling rate                  : 48.0 kHz
Frame rate                     : 31.250 FPS (1536 SPF)
Compression mode               : Lossy
Stream size                    : 400 MiB (1%)
Language                       : French
Service kind                   : Complete Main
Default                        : Yes
Forced                         : No

Text #1
ID                             : 7
Format                         : PGS
Muxing mode                    : zlib
Codec ID                       : S_HDMV/PGS
Codec ID/Info                  : Picture based subtitle format used on BDs/HD-DVDs
Duration                       : 1 h 26 min
Bit rate                       : 37.0 kb/s
Frame rate                     : 0.547 FPS
Count of elements              : 2852
Stream size                    : 23.0 MiB (0%)
Language                       : English
Default                        : Yes
Forced                         : No

Text #2
ID                             : 8
Format                         : PGS
Muxing mode                    : zlib
Codec ID                       : S_HDMV/PGS
Codec ID/Info                  : Picture based subtitle format used on BDs/HD-DVDs
Duration                       : 1 h 26 min
Bit rate                       : 22.3 kb/s
Frame rate                     : 0.362 FPS
Count of elements              : 1884
Stream size                    : 13.8 MiB (0%)
Language                       : Spanish
Default                        : Yes
Forced                         : No

Text #3
ID                             : 9
Format                         : PGS
Muxing mode                    : zlib
Codec ID                       : S_HDMV/PGS
Codec ID/Info                  : Picture based subtitle format used on BDs/HD-DVDs
Duration                       : 1 h 26 min
Bit rate                       : 23.5 kb/s
Frame rate                     : 0.360 FPS
Count of elements              : 1874
Stream size                    : 14.6 MiB (0%)
Language                       : French
Default                        : Yes
Forced                         : No

Text #4
ID                             : 10
Format                         : PGS
Muxing mode                    : zlib
Codec ID                       : S_HDMV/PGS
Codec ID/Info                  : Picture based subtitle format used on BDs/HD-DVDs
Duration                       : 1 h 26 min
Bit rate                       : 1 358 b/s
Frame rate                     : 0.020 FPS
Count of elements              : 104
Stream size                    : 859 KiB (0%)
Language                       : Spanish
Default                        : Yes
Forced                         : No

Text #5
ID                             : 11
Format                         : PGS
Muxing mode                    : zlib
Codec ID                       : S_HDMV/PGS
Codec ID/Info                  : Picture based subtitle format used on BDs/HD-DVDs
Duration                       : 1 h 25 min
Bit rate                       : 947 b/s
Frame rate                     : 0.014 FPS
Count of elements              : 72
Stream size                    : 595 KiB (0%)
Language                       : French
Default                        : Yes
Forced                         : No

Text #6
ID                             : 12
Format                         : PGS
Muxing mode                    : zlib
Codec ID                       : S_HDMV/PGS
Codec ID/Info                  : Picture based subtitle format used on BDs/HD-DVDs
Duration                       : 1 h 20 min
Bit rate                       : 33.1 kb/s
Frame rate                     : 0.270 FPS
Count of elements              : 1309
Stream size                    : 19.1 MiB (0%)
Default                        : Yes
Forced                         : No

Text #7
ID                             : 13
Format                         : PGS
Muxing mode                    : zlib
Codec ID                       : S_HDMV/PGS
Codec ID/Info                  : Picture based subtitle format used on BDs/HD-DVDs
Duration                       : 1 h 27 min
Bit rate                       : 31.6 kb/s
Frame rate                     : 0.400 FPS
Count of elements              : 2097
Stream size                    : 19.7 MiB (0%)
Title                          : 简体中字
Language                       : Chinese
Default                        : Yes
Forced                         : No

Text #8
ID                             : 14
Format                         : UTF-8
Codec ID                       : S_TEXT/UTF8
Codec ID/Info                  : UTF-8 Plain Text
Duration                       : 1 h 20 min
Bit rate                       : 40 b/s
Frame rate                     : 0.213 FPS
Count of elements              : 1025
Stream size                    : 24.1 KiB (0%)
Title                          : 繁体中字
Language                       : Chinese
Default                        : Yes
Forced                         : No

新种推荐使用qBittorrent、uTorrent等下载软件,有条件的推荐115更好的下载软件

[4Kjia独享DIY资源]小黄人大眼萌:神偷奶爸前传[简繁&英文] (84.24GB)
Minions.The.Rise.of.Gru.2022.2160p.BluRay.HEVC.TrueHD.7.1.Atmos-ALANG-【2160P蓝光原盘
游客,如果您要查看本帖隐藏内容请回复


[4Kjia独享DIY资源]小黄人大眼萌:神偷奶爸前传[简繁&英文](56.93GB)
Minions.The.Rise.of.Gru.2022.2160p.BluRay.REMUX.HEVC.DTS-HD.MA.TrueHD.7.1.Atmos-ALANG-【2160P蓝光REMUX】
游客,如果您要查看本帖隐藏内容请回复

注:以上各版本均采用原版无损封装,并保留了原有音轨、字幕,谢谢!


相关其他4K蓝光[原盘+REMUX]版本链接

小黄人大眼萌:神偷奶爸前传(2022)4K蓝光[原盘+REMUX]版本下载
小黄人大眼萌:神偷奶爸前传 (2022) 4K蓝光REMUX版本下载


QQ4K海报.gif

[4Kjia独享DIY资源]小黄人大眼萌:神偷奶爸前传[简繁&英文] (56.93GB)Minions.The.R.torrent

746.93 KB, 下载次数: 43, 下载积分: 金币 -15

[4Kjia独享DIY资源]小黄人大眼萌:神偷奶爸前传[简繁&英文] (84.24GB)Minions.The.R.torrent

1.36 MB, 下载次数: 55, 下载积分: 金币 -15


上一篇:X / X (2022) 4K蓝光[原盘+REMUX]版本下载
下一篇:星际旅行6:未来之城 (1991) 4K蓝光[原盘+REMUX]版本下载
回复

使用道具 举报

主题

帖子

0

积分

超级版主

Rank: 8Rank: 8

积分
0
 楼主| 发表于 2022-9-6 12:59:47 | 显示全部楼层
Minions.The.Rise.of.Gru.2022.2160p.BluRay.HEVC.TrueHD.7.1.Atmos-MT_20220906_115922.407.jpg Minions.The.Rise.of.Gru.2022.2160p.BluRay.HEVC.TrueHD.7.1.Atmos-MT_20220906_120022.362.jpg Minions.The.Rise.of.Gru.2022.2160p.BluRay.HEVC.TrueHD.7.1.Atmos-MT_20220906_120058.458.jpg Minions.The.Rise.of.Gru.2022.2160p.BluRay.HEVC.TrueHD.7.1.Atmos-MT_20220906_120220.203.jpg QQ图片20220906115650.png QQ图片20220906115737.png
回复 支持 反对

使用道具 举报

3

主题

1789

帖子

4907

积分

4K家园VIP

Rank: 9Rank: 9Rank: 9

积分
4907
发表于 2022-9-6 12:52:21 | 显示全部楼层
感谢分享
回复 支持 反对

使用道具 举报

0

主题

1412

帖子

4250

积分

4K家园VIP

Rank: 9Rank: 9Rank: 9

积分
4250
发表于 2022-9-6 12:52:21 | 显示全部楼层
你们要是有4K资源记得分享,别小气
回复 支持 反对

使用道具 举报

0

主题

1431

帖子

4127

积分

中级会员

Rank: 4

积分
4127
发表于 2022-9-6 13:39:51 | 显示全部楼层
这个资源我记得是一套的,楼主还有没有
回复 支持 反对

使用道具 举报

1

主题

1436

帖子

4108

积分

中级会员

Rank: 4

积分
4108
发表于 2022-9-6 14:00:29 来自手机 | 显示全部楼层
楼主这资源不错,我收藏了
回复 支持 反对

使用道具 举报

1

主题

1444

帖子

4180

积分

4K家园VIP

Rank: 9Rank: 9Rank: 9

积分
4180
发表于 2022-9-6 14:15:04 | 显示全部楼层
你们要是有4K资源记得分享,别小气
回复 支持 反对

使用道具 举报

主题

帖子

0

积分

新手上路

Rank: 1

积分
0
发表于 2022-9-6 14:25:03 | 显示全部楼层
感谢分享
回复

使用道具 举报

0

主题

112

帖子

2676

积分

4K家园VIP

Rank: 9Rank: 9Rank: 9

积分
2676
发表于 2022-9-6 14:36:53 | 显示全部楼层
感谢楼主分享
回复 支持 反对

使用道具 举报

主题

帖子

266

积分

4K家园VIP

Rank: 9Rank: 9Rank: 9

积分
266
发表于 2022-9-7 09:36:46 | 显示全部楼层
本帖最后由 ChaunceyChan 于 2022-9-7 09:37 编辑

微信图片_20220505005743.jpg
微信图片_20220505005743.jpg
回复 支持 反对

使用道具 举报

您需要登录后才可以回帖 登录 | 立即注册

本版积分规则

精彩图文
Archiver|手机版|TAG|Sitemap|新帖|专题|联系我们:邮箱: 4kjia.com@gmail.com   

4k家园   ©2019