[4K电影] 沼泽深处的女孩 / Where the Crawdads Sing (2022)4K高清版本下载

[复制链接]

2333

主题

2482

帖子

1万

积分

超级版主

Rank: 8Rank: 8

积分
17979
 楼主| 发表于 2022-9-6 15:44:20 | 显示全部楼层 |阅读模式
本帖最后由 最爱4K哟 于 2022-9-6 15:18 编辑

QQ图片20220906150159_副本.png
◎译  名 沼泽深处的女孩 / 蝲蛄吟唱的地方 / 荒野谜尸(港) / 沼泽谋杀案(台)
◎片  名 Where the Crawdads Sing
◎年  代 2022
◎产  地 美国
◎类  别 剧情 / 爱情 / 悬疑
◎语  言 英语
◎上映日期 2022-09(中国大陆) / 2022-07-15(美国)
◎IMDb评分 7.1/10 from 17308 users 更新 : 2022-09-06
◎IMDb链接 https://www.imdb.com/title/tt9411972/
◎豆瓣评分 7.7/10 from 1144 users 更新 : 2022-09-06
◎豆瓣链接 https://movie.douban.com/subject/35230876/
◎片  长 125分钟
◎导  演 奥利维亚·纽曼 Olivia Newman
◎编  剧 露西·阿里巴 Lucy Alibar / 迪莉娅·欧文斯 Delia Owens
◎演  员 黛西·埃德加-琼斯 Daisy Edgar-Jones
       泰勒·约翰·史密斯 Taylor John Smith
       哈里斯·迪金森 Harris Dickinson
       大卫·斯特雷泽恩 David Strathairn
       迈克尔·凯悦 Michael Hyatt
       小斯特林·马塞尔 Sterling Macer Jr.
       洛根·麦克雷 Logan Macrae
       比尔·凯利 Bill Kelly
       阿娜·欧蕾利 Ahna O'Reilly
       加瑞特·迪拉胡特 Garret Dillahunt
       乔乔·蕾吉娜 Jojo Regina
       卢克·大卫·布鲁姆 Luke David Blumm
       布鲁·克拉克 Blue Clarke
       威尔·邦顿 Will Bundon
       杰森·华纳·史密斯 Jayson Warner Smith
       戴恩·罗兹 Dane Rhodes
       埃里克·拉丁 Eric Ladin
       乔·克里斯特 Joe Chrest
       杰里·塔布斯 Jerri Tubbs
       查理·塔尔伯特 Charlie Talbert
       托比·尼克尔斯 Toby Nichols
       比利·斯洛特 Billy Slaughter
       瑞茜·威瑟斯彭 Reese Witherspoon
       泰勒·斯威夫特 Taylor Swift


◎简  介


  主角是一名叫做基亚的女孩,她遭到家人遗弃,在北卡罗来纳州中一片危险的沼泽地里独自生活并长大。多年来,巴克利湾一直萦绕着一则关于“沼泽女孩”的传言,导致聪明坚强的基亚遭到当地居民的排斥。有一天,基亚被镇上来的两位年轻人所吸引,面对一个 全新的、令人震撼的世界,她敞开了自己的心扉。但是,在其中一位年轻人的尸体被发现后,她立刻被小镇认定为头号嫌疑人。随着案件调查取得新的进展,真相反而变得愈发难以捉摸。沼泽内暗藏的诸多秘密即将被揭开。
电影改编自全球现象级畅销小说《蝲蛄吟唱的地方》。

Video
ID : 1
Format : HEVC
Format/Info : High Efficiency Video Coding
Format profile : Main 10@L5@High
Codec ID : V_MPEGH/ISO/HEVC
Duration : 2 h 5 min
Bit rate : 12.0 Mb/s
Width : 3 840 pixels
Height : 1 600 pixels
Display aspect ratio : 2.40:1
Frame rate mode : Constant
Frame rate : 23.976 FPS
Color space : YUV
Chroma subsampling : 4:2:0
Bit depth : 10 bits
Bits/(Pixel*Frame) : 0.081
Stream size : 10.5 GiB (82%)
Default : Yes
Forced : No
Color range : Limited
Color primaries : BT.709
Transfer characteristics : BT.709
Matrix coefficients : BT.709

Audio #1
ID : 2
Format : DTS XLL
Format/Info : Digital Theater Systems
Commercial name : DTS-HD Master Audio
Codec ID : A_DTS
Duration : 2 h 5 min
Bit rate mode : Variable
Bit rate : 2 126 kb/s
Channel(s) : 6 channels
Channel layout : C L R Ls Rs LFE
Sampling rate : 48.0 kHz
Frame rate : 93.750 FPS (512 SPF)
Bit depth : 16 bits
Compression mode : Lossless
Delay relative to video : 3 ms
Stream size : 1.86 GiB (15%)
Title : DTS-HD MA 5.1
Language : English
Default : Yes
Forced : No

Audio #2
ID : 3
Format : AC-3
Format/Info : Audio Coding 3
Commercial name : Dolby Digital
Codec ID : A_AC3
Duration : 2 h 5 min
Bit rate mode : Constant
Bit rate : 384 kb/s
Channel(s) : 6 channels
Channel layout : L R C LFE Ls Rs
Sampling rate : 48.0 kHz
Frame rate : 31.250 FPS (1536 SPF)
Compression mode : Lossy
Stream size : 344 MiB (3%)
Language : English
Service kind : Complete Main
Default : Yes
Forced : No

Text #1
ID : 4
Format : UTF-8
Codec ID : S_TEXT/UTF8
Codec ID/Info : UTF-8 Plain Text
Duration : 2 h 4 min
Bit rate : 50 b/s
Frame rate : 0.177 FPS
Count of elements : 1316
Stream size : 45.8 KiB (0%)
Language : English
Default : Yes
Forced : No

Text #2
ID : 5
Format : UTF-8
Codec ID : S_TEXT/UTF8
Codec ID/Info : UTF-8 Plain Text
Duration : 2 h 4 min
Bit rate : 53 b/s
Frame rate : 0.190 FPS
Count of elements : 1416
Stream size : 48.9 KiB (0%)
Title : SDH
Language : English
Default : No
Forced : No

Text #3
ID : 6
Format : PGS
Muxing mode : zlib
Codec ID : S_HDMV/PGS
Codec ID/Info : Picture based subtitle format used on BDs/HD-DVDs
Duration : 1 h 59 min
Bit rate : 31.1 kb/s
Frame rate : 0.359 FPS
Count of elements : 2576
Stream size : 26.7 MiB (0%)
Title : English
Language : English
Default : No
Forced : No

Text #4
ID : 7
Format : PGS
Muxing mode : zlib
Codec ID : S_HDMV/PGS
Codec ID/Info : Picture based subtitle format used on BDs/HD-DVDs
Duration : 2 h 4 min
Bit rate : 33.4 kb/s
Frame rate : 0.389 FPS
Count of elements : 2902
Stream size : 29.7 MiB (0%)
Title : English (SDH)
Language : English
Default : No
Forced : No

Text #5
ID : 8
Format : PGS
Muxing mode : zlib
Codec ID : S_HDMV/PGS
Codec ID/Info : Picture based subtitle format used on BDs/HD-DVDs
Duration : 2 h 4 min
Bit rate : 27.8 kb/s
Frame rate : 0.357 FPS
Count of elements : 2664
Stream size : 24.7 MiB (0%)
Title : French
Language : French
Default : No
Forced : No

Text #6
ID : 9
Format : PGS
Muxing mode : zlib
Codec ID : S_HDMV/PGS
Codec ID/Info : Picture based subtitle format used on BDs/HD-DVDs
Duration : 2 h 4 min
Bit rate : 27.7 kb/s
Frame rate : 0.343 FPS
Count of elements : 2558
Stream size : 24.6 MiB (0%)
Title : Spanish (Latin American)
Language : Spanish
Default : No
Forced : No

Menu
00:00:00.000 : en:Chapter 1
00:08:45.191 : en:Chapter 2
00:15:25.967 : en:Chapter 3
00:22:13.958 : en:Chapter 4
00:29:12.834 : en:Chapter 5
00:36:33.316 : en:Chapter 6
00:46:39.338 : en:Chapter 7
00:54:06.660 : en:Chapter 8
01:00:51.231 : en:Chapter 9
01:06:53.301 : en:Chapter 10
01:15:50.463 : en:Chapter 11
01:22:19.101 : en:Chapter 12
01:29:23.441 : en:Chapter 13
01:36:23.152 : en:Chapter 14
01:43:36.335 : en:Chapter 15
01:53:24.089 : en:Chapter 16
02:00:59.627 : en:Chapter 17

资源速度为零或资源敏感被和谐时,推荐使用qBittorrent等下载软件,有条件的推荐115更好的下载软件!

下载地址:


游客,如果您要查看本帖隐藏内容请回复

游客,如果您要查看本帖隐藏内容请回复

游客,如果您要查看本帖隐藏内容请回复

游客,如果您要查看本帖隐藏内容请回复





上一篇:兵临城下 / Enemy at the Gates (2001) 4K高清版本下载
下一篇:穿着鞋子的贝壳马塞尔 (2021) 4K高清版本下载
回复

使用道具 举报

56

主题

1560

帖子

4564

积分

4K家园VIP

Rank: 9Rank: 9Rank: 9

积分
4564
发表于 2022-9-6 15:45:02 | 显示全部楼层
体验下4K版的
回复 支持 反对

使用道具 举报

0

主题

1241

帖子

3737

积分

4K家园VIP

Rank: 9Rank: 9Rank: 9

积分
3737
发表于 2022-9-6 17:11:28 | 显示全部楼层
纯粹路过,没任何兴趣,仅仅是看在老用户份上回复一下
回复 支持 反对

使用道具 举报

0

主题

4

帖子

33

积分

新手上路

Rank: 1

积分
33
发表于 2022-9-6 19:39:38 | 显示全部楼层
thans for your sharing
回复 支持 反对

使用道具 举报

0

主题

138

帖子

959

积分

新手上路

Rank: 1

积分
959
发表于 2022-9-6 21:08:22 | 显示全部楼层
Crawdads Sing (2022)4K高清版本下载
回复 支持 反对

使用道具 举报

0

主题

1

帖子

12

积分

新手上路

Rank: 1

积分
12
发表于 2022-9-6 21:58:50 | 显示全部楼层
不错
回复

使用道具 举报

0

主题

2

帖子

12

积分

新手上路

Rank: 1

积分
12
发表于 2022-9-6 22:12:22 | 显示全部楼层
热心回复
回复

使用道具 举报

3

主题

1756

帖子

4808

积分

4K家园VIP

Rank: 9Rank: 9Rank: 9

积分
4808
发表于 2022-9-7 00:22:11 | 显示全部楼层
顶顶更健康
回复 支持 反对

使用道具 举报

0

主题

1

帖子

6

积分

新手上路

Rank: 1

积分
6
发表于 2022-9-7 16:12:35 | 显示全部楼层
这个站资源很多
回复 支持 反对

使用道具 举报

0

主题

1

帖子

6

积分

新手上路

Rank: 1

积分
6
发表于 2022-9-7 16:31:37 | 显示全部楼层
新人 求带
回复

使用道具 举报

您需要登录后才可以回帖 登录 | 立即注册

本版积分规则

精彩图文
Archiver|手机版|TAG|Sitemap|新帖|专题|联系我们:邮箱: 4kjia.com@gmail.com   

4k家园   ©2019