[4K电影] 穿着鞋子的贝壳马塞尔 (2021) 4K高清版本下载

[复制链接]

2333

主题

2482

帖子

1万

积分

超级版主

Rank: 8Rank: 8

积分
17982
 楼主| 发表于 2022-9-6 15:22:44 | 显示全部楼层 |阅读模式
QQ图片20220906150015_副本.png

◎译  名 穿着鞋子的贝壳马塞尔 / 穿鞋子的贝壳马塞尔 / 贝壳马塞尔之家
◎片  名 Marcel the Shell with Shoes On
◎年  代 2021
◎产  地 美国
◎类  别 喜剧
◎语  言 英语
◎上映日期 2021-09-03(特柳赖德电影节) / 2022-06-24(美国)
◎IMDb评分 8.1/10 from 3431 users  更新 : 2022-09-06
◎IMDb链接 https://www.imdb.com/title/tt15339456/
◎豆瓣评分 8.4/10 from 447 users  更新 : 2022-09-06
◎豆瓣链接 https://movie.douban.com/subject/35588343/
◎片  长 89分钟
◎导  演 迪恩·弗雷斯彻-坎普 Dean Fleischer-Camp
◎编  剧 迪恩·弗雷斯彻-坎普 Dean Fleischer-Camp / 伊丽莎白·霍尔姆 Elisabeth Holm / 尼克·佩利 Nick Paley / 珍妮·斯蕾特 Jenny Slate
◎演  员 珍妮·斯蕾特 Jenny Slate
       迪恩·弗雷斯彻-坎普 Dean Fleischer-Camp
       伊莎贝拉·罗西里尼 Isabella Rossellini
       托马斯·曼 Thomas Mann
       罗莎·萨拉查 Rosa Salazar
       莱思莉·斯塔尔 Lesley Stahl
       内森·菲尔德 Nathan Fielder
       安迪·里克特 Andy Richter
       莎拉·赛尔 Sarah Thyre
       杰茜·克莱因 Jessi Klein
       彼得·博内兹 Peter Bonerz
       乔·加布勒 Joe Gabler
       莎丽·芬克尔斯坦 Shari Finkelstein
       塞缪尔·潘特 Samuel Painter
       布莱克·霍特尔 Blake Hottle
       斯科特·奥斯特曼 Scott Osterman
       杰里米·埃文斯 Jeremy Evans


◎简  介


  改编自Dean Fleischer-Camp和珍妮·斯蕾特的网络短片系列,Dean亲自执导并出演一个也叫Dean的人类纪录片导演,他搬进一所Airbnb的租房,发现里面已经有了住客——一个贝壳动物Marcel,它的外婆Connie,还有它的宠物:一坨叫Alan的绒毛。Marcel由珍妮·斯蕾特配音,Connie由伊莎贝拉·罗西里尼配音。
Marcel和Connie本来是一个贝壳大家族的成员,但因为一次神秘的悲剧事件,它们婆孙俩现在独居。Dean开始拍摄它们的日常,并因此迅速在网络走红,两壳一人的生活因此永久被改变。这件事能帮助Marcel找回它离失的家族吗?

Video
ID : 1
Format : HEVC
Format/Info : High Efficiency Video Coding
Format profile : Main 10@L5@High
HDR format : Dolby Vision, Version 1.0, dvhe.05.06, BL+RPU
Codec ID : dvhe
Codec ID/Info : High Efficiency Video Coding with Dolby Vision
Duration : 1 h 30 min
Bit rate : 14.3 Mb/s
Width : 3 840 pixels
Original width : 3 836 pixels
Height : 2 160 pixels
Original height : 2 156 pixels
Display aspect ratio : 16:9
Original display aspect ratio : 16:9
Frame rate mode : Constant
Frame rate : 23.976 (24000/1001) FPS
Color space : YUV
Chroma subsampling : 4:2:0
Bit depth : 10 bits
Bits/(Pixel*Frame) : 0.072
Stream size : 8.98 GiB (95%)
Default : Yes
Alternate group : 1
Encoded date : UTC 2022-09-06 06:28:10
Tagged date : UTC 2022-09-06 06:29:10
Codec configuration box : hvcC+dvcC

Audio
ID : 2
Format : E-AC-3 JOC
Format/Info : Enhanced AC-3 with Joint Object Coding
Commercial name : Dolby Digital Plus with Dolby Atmos
Codec ID : ec-3
Duration : 1 h 30 min
Bit rate mode : Constant
Bit rate : 768 kb/s
Maximum bit rate : 811 kb/s
Channel(s) : 6 channels
Channel layout : L R C LFE Ls Rs
Sampling rate : 48.0 kHz
Frame rate : 31.250 FPS (1536 SPF)
Compression mode : Lossy
Stream size : 495 MiB (5%)
Title : English
Language : English
Service kind : Complete Main
Default : Yes
Alternate group : 1
Tagged date : UTC 2022-09-06 06:29:10
Complexity index : Not present / 16
Number of dynamic objects : 15
Bed channel count : 1 channel
Bed channel configuration : LFE

Text #1
ID : 3
Format : Timed Text
Codec ID : tx3g
Duration : 1 h 22 min
Bit rate mode : Variable
Bit rate : 105 b/s
Frame rate : 0.671 FPS
Stream size : 62.9 KiB (0%)
Title : English
Language : English
Forced : No
Encoded date : UTC 2022-09-06 06:29:10
Tagged date : UTC 2022-09-06 06:29:10

Text #2
ID : 4
Format : Timed Text
Codec ID : tx3g
Duration : 1 h 26 min
Bit rate mode : Variable
Bit rate : 120 b/s
Frame rate : 0.738 FPS
Stream size : 75.6 KiB (0%)
Title : English
Language : English
Forced : No
Encoded date : UTC 2022-09-06 06:29:10
Tagged date : UTC 2022-09-06 06:29:10


资源速度为零或资源敏感被和谐时,推荐使用qBittorrent等下载软件,有条件的推荐115更好的下载软件!

下载地址:


游客,如果您要查看本帖隐藏内容请回复

游客,如果您要查看本帖隐藏内容请回复

游客,如果您要查看本帖隐藏内容请回复

游客,如果您要查看本帖隐藏内容请回复





上一篇:沼泽深处的女孩 / Where the Crawdads Sing (2022)4K高清版本下载
下一篇:骷髅指南针 / The.Skeletons.Compass (2021) 4K高清版本下载
回复

使用道具 举报

1

主题

1434

帖子

4158

积分

4K家园VIP

Rank: 9Rank: 9Rank: 9

积分
4158
发表于 2022-9-6 15:22:47 来自手机 | 显示全部楼层
都不知道说的啥
回复 支持 反对

使用道具 举报

0

主题

57

帖子

792

积分

新手上路

Rank: 1

积分
792
发表于 2022-9-9 22:00:27 | 显示全部楼层
看禁闻http://v.ht/tttd 点击访问
回复

使用道具 举报

1

主题

1359

帖子

4095

积分

4K家园VIP

Rank: 9Rank: 9Rank: 9

积分
4095
发表于 2022-9-10 20:00:06 | 显示全部楼层
非常好,顶一下
回复 支持 反对

使用道具 举报

1

主题

1415

帖子

4081

积分

4K家园VIP

Rank: 9Rank: 9Rank: 9

积分
4081
发表于 2022-9-11 17:37:18 | 显示全部楼层
不错 支持一个了
回复 支持 反对

使用道具 举报

5

主题

1372

帖子

3972

积分

中级会员

Rank: 4

积分
3972
发表于 2022-9-12 17:05:37 来自手机 | 显示全部楼层
沙发位出租,
回复 支持 反对

使用道具 举报

1

主题

1404

帖子

4066

积分

4K家园VIP

Rank: 9Rank: 9Rank: 9

积分
4066
发表于 2022-9-24 15:45:25 | 显示全部楼层
分享的不错,希望楼主继续分享
回复 支持 反对

使用道具 举报

您需要登录后才可以回帖 登录 | 立即注册

本版积分规则

精彩图文
Archiver|手机版|TAG|Sitemap|新帖|专题|联系我们:邮箱: 4kjia.com@gmail.com   

4k家园   ©2019