[4K电影] 骷髅指南针 / The.Skeletons.Compass (2021) 4K高清版本下载

[复制链接]

2327

主题

2476

帖子

1万

积分

超级版主

Rank: 8Rank: 8

积分
17940
 楼主| 发表于 2022-9-6 15:44:16 | 显示全部楼层 |阅读模式
QQ图片20220906150114_副本.png

◎译  名 骷髅指南针
◎片  名 Skeletons.Compass
◎年  代 2022
◎产  地 美国
◎类  别 冒险 / 家庭
◎语  言 英语
◎上映日期 2021-09-06
◎IMDb评分 0/10 from 0 users  
◎IMDb链接 https://www.imdb.com/title/tt6406930/
◎豆瓣评分 0/10 from 0 users  
◎豆瓣链接 https://movie.douban.com/subject/
◎片  长 81分钟
◎导  演 桑德拉·马丁 Sandra L. Martin
◎编  剧 克里斯无爱 Cris Loveless
◎演  员 卢克·洛芙莱斯 Luke Loveless
      卡莱布·鲍曼 Caleb Baumann
                  里根·舒马特 Reagan Shumate
                  艾比·格蕾丝·弗林特 Abby Grace Flynt
                  赞恩·斯蒂芬斯 Zane Stephens
                  克里斯·克利夫兰 Chris Cleveland
                  莫里斯·约翰逊 Maurice Johnson
                  帕蒂·兰伯特 Patty Lambert
                  约翰·克罗斯 John Crosby
                  蒂恩斯·布莱克本 Teance Blackburn
                  乔伊·瑟蒙德 Joey Thurmond
                  史蒂文·W·洛 Steven W Lowe
                  布鲁斯·W·格林 Bruce W Greene
                  帕特里克·莱蒙 atrick Lemon
                  艾拉·约翰斯 Ella Johns
                  戴维斯·杜德斯黛西 Davis Doodles Daisy
                  伊桑舒马特 Ethan Shumate


◎简  介


         一群中学朋友在树林里找到一具骷髅后,开始寻找宝藏。
Video
ID : 1
Format : HEVC
Format/Info : High Efficiency Video Coding
Format profile : Main 10@L5@High
Codec ID : V_MPEGH/ISO/HEVC
Duration : 1 h 21 min
Bit rate : 11.9 Mb/s
Width : 3 836 pixels
Height : 1 596 pixels
Display aspect ratio : 2.40:1
Frame rate mode : Constant
Frame rate : 23.976 FPS
Color space : YUV
Chroma subsampling : 4:2:0
Bit depth : 10 bits
Bits/(Pixel*Frame) : 0.081
Stream size : 6.72 GiB (97%)
Default : Yes
Forced : No
Color range : Limited
Color primaries : BT.709
Transfer characteristics : BT.709
Matrix coefficients : BT.709

Audio
ID : 2
Format : AC-3
Format/Info : Audio Coding 3
Commercial name : Dolby Digital
Codec ID : A_AC3
Duration : 1 h 21 min
Bit rate mode : Constant
Bit rate : 384 kb/s
Channel(s) : 6 channels
Channel layout : L R C LFE Ls Rs
Sampling rate : 48.0 kHz
Frame rate : 31.250 FPS (1536 SPF)
Compression mode : Lossy
Stream size : 223 MiB (3%)
Language : English
Service kind : Complete Main
Default : Yes
Forced : No

Text #1
ID : 3
Format : UTF-8
Codec ID : S_TEXT/UTF8
Codec ID/Info : UTF-8 Plain Text
Duration : 1 h 19 min
Bit rate : 65 b/s
Frame rate : 0.280 FPS
Count of elements : 1334
Stream size : 38.0 KiB (0%)
Language : English
Default : Yes
Forced : No

Text #2
ID : 4
Format : UTF-8
Codec ID : S_TEXT/UTF8
Codec ID/Info : UTF-8 Plain Text
Duration : 1 h 19 min
Bit rate : 68 b/s
Frame rate : 0.298 FPS
Count of elements : 1426
Stream size : 39.7 KiB (0%)
Title : SDH
Language : English
Default : No
Forced : No
资源速度为零或资源敏感被和谐时,推荐使用qBittorrent等下载软件,有条件的推荐115更好的下载软件!

下载地址:


游客,如果您要查看本帖隐藏内容请回复






上一篇:穿着鞋子的贝壳马塞尔 (2021) 4K高清版本下载
下一篇:安妮:纽约奇缘 [简繁粤中字] / Annie (2014) 4K高清版本下载
回复

使用道具 举报

41

主题

1545

帖子

4411

积分

4K家园VIP

Rank: 9Rank: 9Rank: 9

积分
4411
发表于 2022-9-6 15:44:20 | 显示全部楼层
very good
回复 支持 反对

使用道具 举报

51

主题

1526

帖子

4398

积分

4K家园VIP

Rank: 9Rank: 9Rank: 9

积分
4398
发表于 2022-9-7 02:23:56 | 显示全部楼层
4K应该不错,我也下个看看
回复 支持 反对

使用道具 举报

0

主题

15

帖子

42

积分

新手上路

Rank: 1

积分
42
发表于 2022-9-7 17:06:13 | 显示全部楼层
谢谢分享
回复

使用道具 举报

70

主题

1555

帖子

4537

积分

4K家园VIP

Rank: 9Rank: 9Rank: 9

积分
4537
发表于 2022-9-9 00:15:32 来自手机 | 显示全部楼层
为保住菊花,这个一定得回复!
回复 支持 反对

使用道具 举报

1

主题

1332

帖子

4016

积分

4K家园VIP

Rank: 9Rank: 9Rank: 9

积分
4016
发表于 2022-9-11 12:02:15 | 显示全部楼层
嘘,低调。
回复 支持 反对

使用道具 举报

2

主题

1181

帖子

3565

积分

4K家园VIP

Rank: 9Rank: 9Rank: 9

积分
3565
发表于 2022-9-12 03:07:31 | 显示全部楼层
我也来顶一下..
回复 支持 反对

使用道具 举报

您需要登录后才可以回帖 登录 | 立即注册

本版积分规则

精彩图文
Archiver|手机版|TAG|Sitemap|新帖|专题|联系我们:邮箱: 4kjia.com@gmail.com   

4k家园   ©2019