[4K电影] 安妮:纽约奇缘 [简繁粤中字] / Annie (2014) 4K高清版本下载

[复制链接]

2327

主题

2476

帖子

1万

积分

超级版主

Rank: 8Rank: 8

积分
17940
 楼主| 发表于 2022-9-7 10:06:10 | 显示全部楼层 |阅读模式
QQ图片20220907094421_副本.png

◎译  名 安妮:纽约奇缘/安妮/安妮:纽约情缘
◎片  名 Annie
◎年  代 2014
◎产  地 美国
◎类  别 剧情/喜剧/音乐/家庭
◎语  言 英语
◎上映日期 2014-12-19(美国)/2015-01-09(中国大陆)
◎IMDb评分 5.3/10 from 37966 users 更新 : 2022-09-06
◎IMDb链接 https://www.imdb.com/title/tt1823664/
◎豆瓣评分 6.4/10 from 52.04 users 更新 : 2022-09-07
◎豆瓣链接 https://douban.com/subject/6873740/
◎片  长 118分钟
◎导  演 威尔·古勒 Will Gluck
◎编  剧 威尔·古勒 Will Gluck / 艾莲·布洛什·麦肯纳 Aline Brosh McKenna / 马斯·米汉 Thomas Meehan / 哈罗德·格雷 Harold Gray
◎主  演 杰米·福克斯 Jamie Foxx
       奎文赞妮·瓦利斯 Quvenzhané Wallis
       萝丝·拜恩 Rose Byrne
       鲍比·坎纳瓦尔 Bobby Cannavale
       阿德沃尔·阿吉纽依-艾格拜吉 Adewale Akinnuoye-Agbaje
       大卫·札亚斯 David Zayas
       卡梅隆·迪亚茨 Cameron Diaz
       佐伊·玛格丽特·科莱蒂 Zoe Margaret Colletti
       妮珂莱特·皮尔妮  Nicolette Pierini
       伊登·邓肯·史密斯 Eden Duncan-Smith
       阿曼达·特洛伊 Amanda Troya
       道林·米西克 Dorian Missick
       翠茜·索姆斯 Tracie Thoms
       迈克·比尔比利亚 Mike Birbiglia
       斯蒂芬妮·库祖巴 Stephanie Kurtzuba


◎简  介

  安妮(奎文赞妮·瓦利斯 Quvenzhané Wallis 饰)从小就被父母抛弃,然而,乐观坚强的她一直都相信着,自己的父母总有一天会回来同她相认。安妮生活在汉尼根小姐(卡梅隆·迪亚茨 Cameron Diaz 饰)的家中,在那里,日子算不上好过,然而,这并没能浇灭安妮对于生活的热情和对于未来的希望。
  威尔(杰米·福克斯 Jamie Foxx 饰)是一名富有的商人,野心勃勃的他决心竞选纽约市长。在副总裁格蕾丝(萝丝·拜恩 Rose Byrne 饰)和竞选顾问盖伊(鲍比·坎纳瓦尔 Bobby Cannavale 饰)的怂恿之下,威尔做出了一个惊人的决定——收养安妮,企图依靠这一举动来为自己赢得更高的支持率。然而,古灵精怪的安妮哪会乖乖听从他的摆布呢?

Video
ID : 1
Format : HEVC
Format/Info : High Efficiency Video Coding
Format profile : Main 10@L5@High
HDR format : Dolby Vision, Version 1.0, dvhe.05.06, BL+RPU
Codec ID : V_MPEGH/ISO/HEVC
Duration : 1 h 58 min
Bit rate : 14.3 Mb/s
Width : 3 838 pixels
Height : 1 606 pixels
Display aspect ratio : 2.40:1
Frame rate mode : Constant
Frame rate : 23.976 (24000/1001) FPS
Color space : YUV
Chroma subsampling : 4:2:0
Bit depth : 10 bits
Bits/(Pixel*Frame) : 0.097
Stream size : 11.8 GiB (84%)
Default : Yes
Forced : No

Audio #1
ID : 2
Format : DTS XLL
Format/Info : Digital Theater Systems
Commercial name : DTS-HD Master Audio
Codec ID : A_DTS
Duration : 1 h 58 min
Bit rate mode : Variable
Bit rate : 2 275 kb/s
Channel(s) : 6 channels
Channel layout : C L R Ls Rs LFE
Sampling rate : 48.0 kHz
Frame rate : 93.750 FPS (512 SPF)
Bit depth : 16 bits
Compression mode : Lossless
Delay relative to video : 3 ms
Stream size : 1.88 GiB (13%)
Title : DTS-HD MA 5.1
Language : English
Default : Yes
Forced : No

Audio #2
ID : 3
Format : AC-3
Format/Info : Audio Coding 3
Commercial name : Dolby Digital
Codec ID : A_AC3
Duration : 1 h 58 min
Bit rate mode : Constant
Bit rate : 384 kb/s
Channel(s) : 6 channels
Channel layout : L R C LFE Ls Rs
Sampling rate : 48.0 kHz
Frame rate : 31.250 FPS (1536 SPF)
Compression mode : Lossy
Stream size : 325 MiB (2%)
Language : English
Service kind : Complete Main
Default : Yes
Forced : No

Text #1
ID : 4
Format : UTF-8
Codec ID : S_TEXT/UTF8
Codec ID/Info : UTF-8 Plain Text
Duration : 1 h 57 min
Bit rate : 82 b/s
Frame rate : 0.275 FPS
Count of elements : 1933
Stream size : 70.7 KiB (0%)
Title : English
Language : English
Default : No
Forced : No

Text #2
ID : 5
Format : UTF-8
Codec ID : S_TEXT/UTF8
Codec ID/Info : UTF-8 Plain Text
Duration : 1 h 57 min
Bit rate : 82 b/s
Frame rate : 0.275 FPS
Count of elements : 1933
Stream size : 70.7 KiB (0%)
Title : English British
Language : English
Default : No
Forced : No

Text #3
ID : 6
Format : UTF-8
Codec ID : S_TEXT/UTF8
Codec ID/Info : UTF-8 Plain Text
Duration : 1 h 57 min
Bit rate : 98 b/s
Frame rate : 0.356 FPS
Count of elements : 2509
Stream size : 85.0 KiB (0%)
Title : English CC
Language : English
Default : No
Forced : No

Text #4
ID : 7
Format : UTF-8
Codec ID : S_TEXT/UTF8
Codec ID/Info : UTF-8 Plain Text
Duration : 1 h 57 min
Bit rate : 106 b/s
Frame rate : 0.292 FPS
Count of elements : 2059
Stream size : 91.5 KiB (0%)
Title : Arabic
Language : Arabic
Default : No
Forced : No

Text #5
ID : 8
Format : UTF-8
Codec ID : S_TEXT/UTF8
Codec ID/Info : UTF-8 Plain Text
Duration : 1 h 57 min
Bit rate : 118 b/s
Frame rate : 0.244 FPS
Count of elements : 1720
Stream size : 102 KiB (0%)
Title : Bulgarian
Language : Bulgarian
Default : No
Forced : No

Text #6
ID : 9
Format : UTF-8
Codec ID : S_TEXT/UTF8
Codec ID/Info : UTF-8 Plain Text
Duration : 1 h 57 min
Bit rate : 65 b/s
Frame rate : 0.275 FPS
Count of elements : 1945
Stream size : 56.1 KiB (0%)
Title : 中文(简体)
Language : 中文
Default : No
Forced : No


Text #7
ID : 10
Format : UTF-8
Codec ID : S_TEXT/UTF8
Codec ID/Info : UTF-8 Plain Text
Duration : 1 h 57 min
Bit rate : 67 b/s
Frame rate : 0.281 FPS
Count of elements : 1981
Stream size : 58.0 KiB (0%)
Title : 中文(繁体)
Language : 中文
Default : No
Forced : No


Text #8
ID : 11
Format : UTF-8
Codec ID : S_TEXT/UTF8
Codec ID/Info : UTF-8 Plain Text
Duration : 1 h 57 min
Bit rate : 72 b/s
Frame rate : 0.280 FPS
Count of elements : 1973
Stream size : 62.5 KiB (0%)
Title : Czech
Language : Czech
Default : No
Forced : No

Text #9
ID : 12
Format : UTF-8
Codec ID : S_TEXT/UTF8
Codec ID/Info : UTF-8 Plain Text
Duration : 1 h 57 min
Bit rate : 78 b/s
Frame rate : 0.280 FPS
Count of elements : 1970
Stream size : 67.4 KiB (0%)
Title : Danish
Language : Danish
Default : No
Forced : No

Text #10
ID : 13
Format : UTF-8
Codec ID : S_TEXT/UTF8
Codec ID/Info : UTF-8 Plain Text
Duration : 1 h 57 min
Bit rate : 85 b/s
Frame rate : 0.280 FPS
Count of elements : 1968
Stream size : 73.2 KiB (0%)
Title : German
Language : German
Default : No
Forced : No

Text #11
ID : 14
Format : UTF-8
Codec ID : S_TEXT/UTF8
Codec ID/Info : UTF-8 Plain Text
Duration : 1 h 57 min
Bit rate : 127 b/s
Frame rate : 0.279 FPS
Count of elements : 1967
Stream size : 109 KiB (0%)
Title : Greek
Language : Greek
Default : No
Forced : No

Text #12
ID : 15
Format : UTF-8
Codec ID : S_TEXT/UTF8
Codec ID/Info : UTF-8 Plain Text
Duration : 1 h 57 min
Bit rate : 66 b/s
Frame rate : 0.265 FPS
Count of elements : 1868
Stream size : 57.2 KiB (0%)
Title : Spanish Latin American
Language : Spanish
Default : No
Forced : No

Text #13
ID : 16
Format : UTF-8
Codec ID : S_TEXT/UTF8
Codec ID/Info : UTF-8 Plain Text
Duration : 1 h 57 min
Bit rate : 70 b/s
Frame rate : 0.275 FPS
Count of elements : 1936
Stream size : 60.7 KiB (0%)
Title : Spanish European
Language : Spanish
Default : No
Forced : No

Text #14
ID : 17
Format : UTF-8
Codec ID : S_TEXT/UTF8
Codec ID/Info : UTF-8 Plain Text
Duration : 1 h 57 min
Bit rate : 62 b/s
Frame rate : 0.262 FPS
Count of elements : 1847
Stream size : 53.3 KiB (0%)
Title : Finnish
Language : Finnish
Default : No
Forced : No

Text #15
ID : 18
Format : UTF-8
Codec ID : S_TEXT/UTF8
Codec ID/Info : UTF-8 Plain Text
Duration : 1 h 57 min
Bit rate : 60 b/s
Frame rate : 0.241 FPS
Count of elements : 1696
Stream size : 51.8 KiB (0%)
Title : French European
Language : French
Default : No
Forced : No

Text #16
ID : 19
Format : UTF-8
Codec ID : S_TEXT/UTF8
Codec ID/Info : UTF-8 Plain Text
Duration : 1 h 57 min
Bit rate : 107 b/s
Frame rate : 0.281 FPS
Count of elements : 1980
Stream size : 92.4 KiB (0%)
Title : Hebrew
Language : Hebrew
Default : No
Forced : No

Text #17
ID : 20
Format : UTF-8
Codec ID : S_TEXT/UTF8
Codec ID/Info : UTF-8 Plain Text
Duration : 1 h 57 min
Bit rate : 79 b/s
Frame rate : 0.280 FPS
Count of elements : 1973
Stream size : 68.4 KiB (0%)
Title : Hungarian
Language : Hungarian
Default : No
Forced : No

Text #18
ID : 21
Format : UTF-8
Codec ID : S_TEXT/UTF8
Codec ID/Info : UTF-8 Plain Text
Duration : 1 h 57 min
Bit rate : 76 b/s
Frame rate : 0.291 FPS
Count of elements : 2049
Stream size : 65.4 KiB (0%)
Title : Indonesian
Language : Indonesian
Default : No
Forced : No

Text #19
ID : 22
Format : UTF-8
Codec ID : S_TEXT/UTF8
Codec ID/Info : UTF-8 Plain Text
Duration : 1 h 57 min
Bit rate : 82 b/s
Frame rate : 0.281 FPS
Count of elements : 1975
Stream size : 70.6 KiB (0%)
Title : Italian
Language : Italian
Default : No
Forced : No

Text #20
ID : 23
Format : UTF-8
Codec ID : S_TEXT/UTF8
Codec ID/Info : UTF-8 Plain Text
Duration : 1 h 57 min
Bit rate : 93 b/s
Frame rate : 0.281 FPS
Count of elements : 1981
Stream size : 80.7 KiB (0%)
Title : Korean
Language : Korean
Default : No
Forced : No

Text #21
ID : 24
Format : UTF-8
Codec ID : S_TEXT/UTF8
Codec ID/Info : UTF-8 Plain Text
Duration : 1 h 57 min
Bit rate : 59 b/s
Frame rate : 0.193 FPS
Count of elements : 1360
Stream size : 51.6 KiB (0%)
Title : Dutch
Language : Dutch
Default : No
Forced : No

Text #22
ID : 25
Format : UTF-8
Codec ID : S_TEXT/UTF8
Codec ID/Info : UTF-8 Plain Text
Duration : 1 h 57 min
Bit rate : 61 b/s
Frame rate : 0.241 FPS
Count of elements : 1698
Stream size : 53.2 KiB (0%)
Title : Norwegian
Language : Norwegian
Default : No
Forced : No

Text #23
ID : 26
Format : UTF-8
Codec ID : S_TEXT/UTF8
Codec ID/Info : UTF-8 Plain Text
Duration : 1 h 57 min
Bit rate : 72 b/s
Frame rate : 0.280 FPS
Count of elements : 1973
Stream size : 62.0 KiB (0%)
Title : Polish
Language : Polish
Default : No
Forced : No

Text #24
ID : 27
Format : UTF-8
Codec ID : S_TEXT/UTF8
Codec ID/Info : UTF-8 Plain Text
Duration : 1 h 57 min
Bit rate : 80 b/s
Frame rate : 0.281 FPS
Count of elements : 1977
Stream size : 69.4 KiB (0%)
Title : Portuguese Brazilian
Language : Portuguese
Default : No
Forced : No

Text #25
ID : 28
Format : UTF-8
Codec ID : S_TEXT/UTF8
Codec ID/Info : UTF-8 Plain Text
Duration : 1 h 57 min
Bit rate : 78 b/s
Frame rate : 0.267 FPS
Count of elements : 1880
Stream size : 67.4 KiB (0%)
Title : Portuguese European
Language : Portuguese
Default : No
Forced : No

Text #26
ID : 29
Format : UTF-8
Codec ID : S_TEXT/UTF8
Codec ID/Info : UTF-8 Plain Text
Duration : 1 h 57 min
Bit rate : 134 b/s
Frame rate : 0.281 FPS
Count of elements : 1979
Stream size : 115 KiB (0%)
Title : Russian
Language : Russian
Default : No
Forced : No

Text #27
ID : 30
Format : UTF-8
Codec ID : S_TEXT/UTF8
Codec ID/Info : UTF-8 Plain Text
Duration : 1 h 57 min
Bit rate : 78 b/s
Frame rate : 0.280 FPS
Count of elements : 1973
Stream size : 67.8 KiB (0%)
Title : Slovak
Language : Slovak
Default : No
Forced : No

Text #28
ID : 31
Format : UTF-8
Codec ID : S_TEXT/UTF8
Codec ID/Info : UTF-8 Plain Text
Duration : 1 h 57 min
Bit rate : 61 b/s
Frame rate : 0.207 FPS
Count of elements : 1458
Stream size : 52.9 KiB (0%)
Title : Slovenian
Language : Slovenian
Default : No
Forced : No

Text #29
ID : 32
Format : UTF-8
Codec ID : S_TEXT/UTF8
Codec ID/Info : UTF-8 Plain Text
Duration : 1 h 57 min
Bit rate : 58 b/s
Frame rate : 0.198 FPS
Count of elements : 1393
Stream size : 50.1 KiB (0%)
Title : Swedish
Language : Swedish
Default : No
Forced : No

Text #30
ID : 33
Format : UTF-8
Codec ID : S_TEXT/UTF8
Codec ID/Info : UTF-8 Plain Text
Duration : 1 h 57 min
Bit rate : 213 b/s
Frame rate : 0.281 FPS
Count of elements : 1981
Stream size : 183 KiB (0%)
Title : Thai
Language : Thai
Default : No
Forced : No

Text #31
ID : 34
Format : UTF-8
Codec ID : S_TEXT/UTF8
Codec ID/Info : UTF-8 Plain Text
Duration : 1 h 57 min
Bit rate : 84 b/s
Frame rate : 0.281 FPS
Count of elements : 1975
Stream size : 72.2 KiB (0%)
Title : Turkish
Language : Turkish
Default : No
Forced : No

Text #32
ID : 35
Format : UTF-8
Codec ID : S_TEXT/UTF8
Codec ID/Info : UTF-8 Plain Text
Duration : 1 h 57 min
Bit rate : 69 b/s
Frame rate : 0.281 FPS
Count of elements : 1980
Stream size : 60.0 KiB (0%)
Title : 中文(粤语)
Language : 中文
Default : No
Forced : No


Menu
00:00:00.000 : en:Chapter 01
00:12:15.402 : en:Chapter 02
00:18:19.724 : en:Chapter 03
00:22:24.260 : en:Chapter 04
00:28:42.722 : en:Chapter 05
00:37:23.535 : en:Chapter 06
00:42:22.917 : en:Chapter 07
00:49:38.520 : en:Chapter 08
00:55:19.736 : en:Chapter 09
01:01:59.052 : en:Chapter 10
01:07:12.699 : en:Chapter 11
01:16:45.105 : en:Chapter 12
01:21:30.140 : en:Chapter 13
01:27:20.699 : en:Chapter 14
01:37:45.073 : en:Chapter 15
01:45:47.597 : en:Chapter 16

资源速度为零或资源敏感被和谐时,推荐使用qBittorrent等下载软件,有条件的推荐115更好的下载软件!

下载地址:


游客,如果您要查看本帖隐藏内容请回复

游客,如果您要查看本帖隐藏内容请回复

游客,如果您要查看本帖隐藏内容请回复


相关其他4K高清版本链接:安妮:纽约奇缘 / Annie (2014) 4K高清下载/65.53GB



上一篇:骷髅指南针 / The.Skeletons.Compass (2021) 4K高清版本下载
下一篇:雷神4:爱与雷霆 [DIY简繁粤&英文] (2022) 4K高清版本下载
回复

使用道具 举报

0

主题

1199

帖子

3611

积分

4K家园VIP

Rank: 9Rank: 9Rank: 9

积分
3611
发表于 2022-9-7 10:06:13 | 显示全部楼层
支持,楼下的跟上哈~
回复 支持 反对

使用道具 举报

1

主题

1358

帖子

4092

积分

4K家园VIP

Rank: 9Rank: 9Rank: 9

积分
4092
发表于 2022-9-7 10:20:04 | 显示全部楼层
路过 帮顶 嘿嘿
回复 支持 反对

使用道具 举报

0

主题

8663

帖子

2万

积分

4K家园VIP

Rank: 9Rank: 9Rank: 9

积分
20189
发表于 2022-9-7 10:47:27 | 显示全部楼层
太好啦&萬分感謝版主的無私發佈分享%
回复 支持 反对

使用道具 举报

0

主题

1392

帖子

4192

积分

4K家园VIP

Rank: 9Rank: 9Rank: 9

积分
4192
发表于 2022-9-7 10:52:05 | 显示全部楼层
报告!别开枪,我就是路过来看看的。。。
回复 支持 反对

使用道具 举报

0

主题

475

帖子

2895

积分

注册会员

Rank: 2

积分
2895
发表于 2022-9-7 11:58:34 | 显示全部楼层
感謝版主的發佈
回复 支持 反对

使用道具 举报

1

主题

1404

帖子

4066

积分

4K家园VIP

Rank: 9Rank: 9Rank: 9

积分
4066
发表于 2022-9-7 12:34:16 | 显示全部楼层
我是个凑数的。。。
回复 支持 反对

使用道具 举报

1

主题

1221

帖子

3685

积分

4K家园VIP

Rank: 9Rank: 9Rank: 9

积分
3685
发表于 2022-9-7 12:49:54 | 显示全部楼层
我了个去,顶了
回复 支持 反对

使用道具 举报

0

主题

1

帖子

8

积分

新手上路

Rank: 1

积分
8
发表于 2022-9-7 15:04:12 | 显示全部楼层
bbbrgr.jpg
回复 支持 反对

使用道具 举报

0

主题

2

帖子

19

积分

新手上路

Rank: 1

积分
19
发表于 2022-9-7 15:24:50 | 显示全部楼层
相关其他4K高清版本
回复 支持 反对

使用道具 举报

您需要登录后才可以回帖 登录 | 立即注册

本版积分规则

精彩图文
Archiver|手机版|TAG|Sitemap|新帖|专题|联系我们:邮箱: 4kjia.com@gmail.com   

4k家园   ©2019