[4K电影] 雷神4:爱与雷霆 [DIY简繁粤&英文] (2022) 4K高清版本下载

  [复制链接]

主题

帖子

0

积分

超级版主

Rank: 8Rank: 8

积分
0
 楼主| 发表于 2022-9-7 21:40:24 | 显示全部楼层 |阅读模式
本帖最后由 最爱4K哟 于 2022-9-8 19:05 编辑

QQ图片20220907214929_副本.png

◎译  名 雷神4:爱与雷霆 / 雷神4 / 雷神奇侠4:爱与雷霆(港) / 雷神索尔:爱与雷霆(台)
◎片  名 Thor: Love and Thunder
◎年  代 2022
◎产  地 澳大利亚 / 美国
◎类  别 喜剧 / 动作 / 爱情 / 科幻 / 奇幻 / 冒险
◎语  言 英语
◎上映日期 2022-07-06(中国香港) / 2022-07-08(美国) / 2022-09-08(美国网络)
◎IMDb评分 6.7/10 from 176461 users 更新 : 2022-09-07
◎IMDb链接 https://www.imdb.com/title/tt10648342
◎豆瓣评分 6.0/10 from 18632 users 更新 : 2022-09-07
◎豆瓣链接 https://movie.douban.com/subject/34477861/
◎片  长 119分钟
◎导  演 塔伊加·维迪提 Taika Waititi
◎编  剧 塔伊加·维迪提 Taika Waititi / 詹尼弗·凯廷·罗宾逊 Jennifer Kaytin Robinson / 斯坦·李 Stan Lee / 杰森·亚伦 Jason Aaron
◎主  演 克里斯·海姆斯沃斯 Chris Hemsworth
                   娜塔莉·波特曼 Natalie Portman
                   克里斯蒂安·贝尔 Christian Bale
                   泰莎·汤普森 Tessa Thompson
                   塔伊加·维迪提 Taika Waititi
                   罗素·克劳 Russell Crowe                                      
                   杰米·亚历山大 Jaimie Alexander
                   克里斯·帕拉特 Chris Pratt
                   戴夫·巴蒂斯塔 Dave Bautista
                   凯伦·吉兰 Karen Gillan
                   庞·克莱门捷夫 Pom Klementieff
                   肖恩·古恩 Sean Gunn
                   范·迪塞尔 Vin Diesel
                   布莱德利·库珀 Bradley Cooper
                   卡尔利·里斯 Carly Rees
                   本·法尔科内 Ben Falcone
                   史蒂芬·库里 Stephen Curry
                   鲍比·霍兰德·汉顿 Bobby Holland Hanton
                   戴利·皮尔森 Daley Pearson
                   西蒙·拉塞尔·比尔 Simon Russell Beale
                   乔尼·布鲁 Jonny Brugh
                   布鲁克·斯塔奇威尔 Brooke Satchwell
                   埃尔莎·帕塔奇 Elsa Pataky
                   埃莉扎·德苏扎 Eliza D'Souza
                   卡恩·古尔杜尔 Kaan Guldur
                   普里西拉·道伊西 Priscilla Doueihy
                   斯蒂芬·亨特 Stephen Hunter
                   印第安娜·伊万斯 Indiana Evans
                   艾娃·卡约菲丽斯 Ava Caryofyllis
                   本·辛克莱尔 Ben Sinclair
                   博特·高登斯汀 Brett Goldstein


◎简  介


         影片故事发在在《复仇者联盟4:终局之战》事件之后,雷神索尔(克里斯·海姆斯沃斯 饰)踏上了一段他从未经历过的旅程:找回自我。但索尔的退休计划却被企图消灭众神的屠神者格尔(克里斯蒂安·贝尔 饰)打断,他只好与女武神瓦尔基里(泰莎·汤普森 饰)和寇格(塔伊加·维迪提 饰)再次联手,其间更发现自己八年未见的前女友简·福斯特(娜塔莉·波特曼 饰)获得了雷神之力、挥舞着多年前在自己面前毁灭的雷神之锤,令索尔惊讶不已。他们一起踏上了星际冒险,以揭开格尔的复仇之谜,并在为时已晚之前阻止他。
Video
ID : 1
Format : HEVC
Format/Info : High Efficiency Video Coding
Format profile : Main 10@L5@High
HDR format : Dolby Vision, Version 1.0, dvhe.05.06, BL+RPU
Codec ID : dvhe
Codec ID/Info : High Efficiency Video Coding with Dolby Vision
Duration : 1 h 58 min
Bit rate : 16.6 Mb/s
Width : 3 840 pixels
Height : 2 160 pixels
Display aspect ratio : 16:9
Frame rate mode : Constant
Frame rate : 23.976 (24000/1001) FPS
Color space : YUV
Chroma subsampling : 4:2:0
Bit depth : 10 bits
Bits/(Pixel*Frame) : 0.083
Stream size : 13.7 GiB (96%)
Default : Yes
Alternate group : 1
Encoded date : UTC 2022-09-08 07:27:55
Tagged date : UTC 2022-09-08 07:33:17
Color range : Full
Codec configuration box : hvcC+dvcC

Audio
ID : 2
Format : E-AC-3 JOC
Format/Info : Enhanced AC-3 with Joint Object Coding
Commercial name : Dolby Digital Plus with Dolby Atmos
Codec ID : ec-3
Duration : 1 h 58 min
Bit rate mode : Constant
Bit rate : 768 kb/s
Maximum bit rate : 811 kb/s
Channel(s) : 6 channels
Channel layout : L R C LFE Ls Rs
Sampling rate : 48.0 kHz
Frame rate : 31.250 FPS (1536 SPF)
Compression mode : Lossy
Stream size : 652 MiB (4%)
Title : English
Language : English
Service kind : Complete Main
Default : Yes
Alternate group : 1
Tagged date : UTC 2022-09-08 07:33:17
Complexity index : Not present / 16
Number of dynamic objects : 15
Bed channel count : 1 channel
Bed channel configuration : LFE

Text #1
ID : 3
Format : Timed Text
Codec ID : tx3g
Duration : 1 h 58 min
Bit rate mode : Variable
Bit rate : 83 b/s
Frame rate : 0.642 FPS
Stream size : 72.4 KiB (0%)
Title : English
Language : English
Forced : No
Encoded date : UTC 2022-09-08 07:33:14
Tagged date : UTC 2022-09-08 07:33:17

Text #2
ID : 4
Format : Timed Text
Codec ID : tx3g
Duration : 1 h 58 min
Bit rate mode : Variable
Bit rate : 50 b/s
Frame rate : 0.454 FPS
Stream size : 43.2 KiB (0%)
Title : 中文(粤语)
Language : 中文
Forced : No
Encoded date : UTC 2022-09-08 07:33:14
Tagged date : UTC 2022-09-08 07:33:17

Text #3
ID : 5
Format : Timed Text
Codec ID : tx3g
Duration : 1 h 58 min
Bit rate mode : Variable
Bit rate : 58 b/s
Frame rate : 0.454 FPS
Stream size : 50.1 KiB (0%)
Title : 中文(简体)
Language : 中文
Forced : No
Encoded date : UTC 2022-09-08 07:33:14
Tagged date : UTC 2022-09-08 07:33:17

Text #4
ID : 6
Format : Timed Text
Codec ID : tx3g
Duration : 1 h 58 min
Bit rate mode : Variable
Bit rate : 50 b/s
Frame rate : 0.457 FPS
Stream size : 43.3 KiB (0%)
Title : 中文(繁体)
Language : 中文
Forced : No
Encoded date : UTC 2022-09-08 07:33:15
Tagged date : UTC 2022-09-08 07:33:17

Text #5
ID : 7
Format : Timed Text
Codec ID : tx3g
Duration : 1 h 58 min
Bit rate mode : Variable
Bit rate : 59 b/s
Frame rate : 0.452 FPS
Stream size : 51.2 KiB (0%)
Title : Czech
Language : Czech
Forced : No
Encoded date : UTC 2022-09-08 07:33:15
Tagged date : UTC 2022-09-08 07:33:17

Text #6
ID : 8
Format : Timed Text
Codec ID : tx3g
Duration : 1 h 58 min
Bit rate mode : Variable
Bit rate : 51 b/s
Frame rate : 0.278 FPS
Stream size : 44.6 KiB (0%)
Title : Danish
Language : Danish
Forced : No
Encoded date : UTC 2022-09-08 07:33:15
Tagged date : UTC 2022-09-08 07:33:17

Text #7
ID : 9
Format : Timed Text
Codec ID : tx3g
Duration : 1 h 58 min
Bit rate mode : Variable
Bit rate : 56 b/s
Frame rate : 0.390 FPS
Stream size : 48.3 KiB (0%)
Title : Dutch
Language : Dutch
Forced : No
Encoded date : UTC 2022-09-08 07:33:15
Tagged date : UTC 2022-09-08 07:33:17

Text #8
ID : 10
Format : Timed Text
Codec ID : tx3g
Duration : 1 h 58 min
Bit rate mode : Variable
Bit rate : 66 b/s
Frame rate : 0.452 FPS
Stream size : 57.1 KiB (0%)
Title : Finnish
Language : Finnish
Forced : No
Encoded date : UTC 2022-09-08 07:33:15
Tagged date : UTC 2022-09-08 07:33:17

Text #9
ID : 11
Format : Timed Text
Codec ID : tx3g
Duration : 1 h 58 min
Bit rate mode : Variable
Bit rate : 55 b/s
Frame rate : 0.423 FPS
Stream size : 48.1 KiB (0%)
Title : French
Language : French
Forced : No
Encoded date : UTC 2022-09-08 07:33:15
Tagged date : UTC 2022-09-08 07:33:17

Text #10
ID : 12
Format : Timed Text
Codec ID : tx3g
Duration : 1 h 58 min
Bit rate mode : Variable
Bit rate : 68 b/s
Frame rate : 0.453 FPS
Stream size : 58.7 KiB (0%)
Title : French
Language : French
Forced : No
Encoded date : UTC 2022-09-08 07:33:15
Tagged date : UTC 2022-09-08 07:33:17

Text #11
ID : 13
Format : Timed Text
Codec ID : tx3g
Duration : 1 h 58 min
Bit rate mode : Variable
Bit rate : 57 b/s
Frame rate : 0.414 FPS
Stream size : 49.4 KiB (0%)
Title : German
Language : German
Forced : No
Encoded date : UTC 2022-09-08 07:33:15
Tagged date : UTC 2022-09-08 07:33:17

Text #12
ID : 14
Format : Timed Text
Codec ID : tx3g
Duration : 1 h 58 min
Bit rate mode : Variable
Bit rate : 99 b/s
Frame rate : 0.450 FPS
Stream size : 86.2 KiB (0%)
Title : Greek
Language : Greek
Forced : No
Encoded date : UTC 2022-09-08 07:33:15
Tagged date : UTC 2022-09-08 07:33:17

Text #13
ID : 15
Format : Timed Text
Codec ID : tx3g
Duration : 1 h 58 min
Bit rate mode : Variable
Bit rate : 57 b/s
Frame rate : 0.453 FPS
Stream size : 49.9 KiB (0%)
Title : Hungarian
Language : Hungarian
Forced : No
Encoded date : UTC 2022-09-08 07:33:15
Tagged date : UTC 2022-09-08 07:33:17

Text #14
ID : 16
Format : Timed Text
Codec ID : tx3g
Duration : 1 h 58 min
Bit rate mode : Variable
Bit rate : 62 b/s
Frame rate : 0.450 FPS
Stream size : 54.2 KiB (0%)
Title : Icelandic
Language : Icelandic
Forced : No
Encoded date : UTC 2022-09-08 07:33:16
Tagged date : UTC 2022-09-08 07:33:17

Text #15
ID : 17
Format : Timed Text
Codec ID : tx3g
Duration : 1 h 58 min
Bit rate mode : Variable
Bit rate : 67 b/s
Frame rate : 0.452 FPS
Stream size : 58.3 KiB (0%)
Title : Italian
Language : Italian
Forced : No
Encoded date : UTC 2022-09-08 07:33:16
Tagged date : UTC 2022-09-08 07:33:17

Text #16
ID : 18
Format : Timed Text
Codec ID : tx3g
Duration : 1 h 58 min
Bit rate mode : Variable
Bit rate : 52 b/s
Frame rate : 0.436 FPS
Stream size : 45.0 KiB (0%)
Title : Japanese
Language : Japanese
Forced : No
Encoded date : UTC 2022-09-08 07:33:16
Tagged date : UTC 2022-09-08 07:33:17

Text #17
ID : 19
Format : Timed Text
Codec ID : tx3g
Duration : 1 h 58 min
Bit rate mode : Variable
Bit rate : 59 b/s
Frame rate : 0.451 FPS
Stream size : 51.2 KiB (0%)
Title : Korean
Language : Korean
Forced : No
Encoded date : UTC 2022-09-08 07:33:16
Tagged date : UTC 2022-09-08 07:33:17

Text #18
ID : 20
Format : Timed Text
Codec ID : tx3g
Duration : 1 h 58 min
Bit rate mode : Variable
Bit rate : 59 b/s
Frame rate : 0.453 FPS
Stream size : 50.8 KiB (0%)
Title : Norwegian
Language : Norwegian
Forced : No
Encoded date : UTC 2022-09-08 07:33:16
Tagged date : UTC 2022-09-08 07:33:17

Text #19
ID : 21
Format : Timed Text
Codec ID : tx3g
Duration : 1 h 58 min
Bit rate mode : Variable
Bit rate : 53 b/s
Frame rate : 0.453 FPS
Stream size : 46.2 KiB (0%)
Title : Polish
Language : Polish
Forced : No
Encoded date : UTC 2022-09-08 07:33:16
Tagged date : UTC 2022-09-08 07:33:17

Text #20
ID : 22
Format : Timed Text
Codec ID : tx3g
Duration : 1 h 58 min
Bit rate mode : Variable
Bit rate : 63 b/s
Frame rate : 0.442 FPS
Stream size : 55.1 KiB (0%)
Title : Portuguese
Language : Portuguese
Forced : No
Encoded date : UTC 2022-09-08 07:33:16
Tagged date : UTC 2022-09-08 07:33:17

Text #21
ID : 23
Format : Timed Text
Codec ID : tx3g
Duration : 1 h 58 min
Bit rate mode : Variable
Bit rate : 63 b/s
Frame rate : 0.452 FPS
Stream size : 54.6 KiB (0%)
Title : Portuguese
Language : Portuguese
Forced : No
Encoded date : UTC 2022-09-08 07:33:16
Tagged date : UTC 2022-09-08 07:33:17

Text #22
ID : 24
Format : Timed Text
Codec ID : tx3g
Duration : 1 h 58 min
Bit rate mode : Variable
Bit rate : 65 b/s
Frame rate : 0.419 FPS
Stream size : 56.4 KiB (0%)
Title : Romanian
Language : Romanian
Forced : No
Encoded date : UTC 2022-09-08 07:33:16
Tagged date : UTC 2022-09-08 07:33:17

Text #23
ID : 25
Format : Timed Text
Codec ID : tx3g
Duration : 1 h 58 min
Bit rate mode : Variable
Bit rate : 57 b/s
Frame rate : 0.453 FPS
Stream size : 49.2 KiB (0%)
Title : Slovak
Language : Slovak
Forced : No
Encoded date : UTC 2022-09-08 07:33:17
Tagged date : UTC 2022-09-08 07:33:17

Text #24
ID : 26
Format : Timed Text
Codec ID : tx3g
Duration : 1 h 58 min
Bit rate mode : Variable
Bit rate : 66 b/s
Frame rate : 0.454 FPS
Stream size : 57.2 KiB (0%)
Title : Spanish-EU
Language : Spanish
Forced : No
Encoded date : UTC 2022-09-08 07:33:17
Tagged date : UTC 2022-09-08 07:33:17

Text #25
ID : 27
Format : Timed Text
Codec ID : tx3g
Duration : 1 h 58 min
Bit rate mode : Variable
Bit rate : 60 b/s
Frame rate : 0.451 FPS
Stream size : 52.2 KiB (0%)
Title : Spanish-EU
Language : Spanish
Forced : No
Encoded date : UTC 2022-09-08 07:33:17
Tagged date : UTC 2022-09-08 07:33:17

Text #26
ID : 28
Format : Timed Text
Codec ID : tx3g
Duration : 1 h 58 min
Bit rate mode : Variable
Bit rate : 56 b/s
Frame rate : 0.328 FPS
Stream size : 48.3 KiB (0%)
Title : Swedish
Language : Swedish
Forced : No
Encoded date : UTC 2022-09-08 07:33:17
Tagged date : UTC 2022-09-08 07:33:17

Text #27
ID : 29
Format : Timed Text
Codec ID : tx3g
Duration : 1 h 58 min
Bit rate mode : Variable
Bit rate : 64 b/s
Frame rate : 0.452 FPS
Stream size : 55.5 KiB (0%)
Title : Turkish
Language : Turkish
Forced : No
Encoded date : UTC 2022-09-08 07:33:17
Tagged date : UTC 2022-09-08 07:33:17



General
Complete name                  : D:\电影\[4Kjia独享资源] 雷神4:爱与雷霆 [DIY简繁粤中字&英文] Thor.Love.and.Thunder.2022.2160p.WEB-DL.x265.10bit.HDR.DDP5.1.Atmos-ALANG
Format                         : Matroska
Format version                 : Version 4
File size                      : 20.4 GiB
Duration                       : 1 h 58 min
Overall bit rate               : 24.6 Mb/s
Encoded date                   : UTC 2022-09-08 03:32:38
Writing application            : mkvmerge v68.0.0 ('The Curtain') 64-bit
Writing library                : libebml v1.4.2 + libmatroska v1.6.4

Video
ID                             : 1
Format                         : HEVC
Format/Info                    : High Efficiency Video Coding
Format profile                 : Main 10@L5@High
HDR format                     : SMPTE ST 2086, HDR10 compatible
Codec ID                       : V_MPEGH/ISO/HEVC
Duration                       : 1 h 58 min
Bit rate                       : 23.8 Mb/s
Width                          : 3 840 pixels
Height                         : 1 608 pixels
Display aspect ratio           : 2.40:1
Frame rate mode                : Constant
Frame rate                     : 23.976 FPS
Color space                    : YUV
Chroma subsampling             : 4:2:0 (Type 2)
Bit depth                      : 10 bits
Bits/(Pixel*Frame)             : 0.161
Stream size                    : 19.8 GiB (97%)
Default                        : Yes
Forced                         : No
Color range                    : Limited
Color primaries                : BT.2020
Transfer characteristics       : PQ
Matrix coefficients            : BT.2020 non-constant
Mastering display color primar : BT.2020
Mastering display luminance    : min: 0.0050 cd/m2, max: 1000 cd/m2
Maximum Content Light Level    : 1863 cd/m2
Maximum Frame-Average Light Le : 980 cd/m2

Audio
ID                             : 2
Format                         : E-AC-3 JOC
Format/Info                    : Enhanced AC-3 with Joint Object Coding
Commercial name                : Dolby Digital Plus with Dolby Atmos
Codec ID                       : A_EAC3
Duration                       : 1 h 58 min
Bit rate mode                  : Constant
Bit rate                       : 768 kb/s
Channel(s)                     : 6 channels
Channel layout                 : L R C LFE Ls Rs
Sampling rate                  : 48.0 kHz
Frame rate                     : 31.250 FPS (1536 SPF)
Compression mode               : Lossy
Stream size                    : 652 MiB (3%)
Language                       : English
Service kind                   : Complete Main
Default                        : Yes
Forced                         : No
Complexity index               : 16
Number of dynamic objects      : 15
Bed channel count              : 1 channel
Bed channel configuration      : LFE

Text #1
ID                             : 3
Format                         : UTF-8
Codec ID                       : S_TEXT/UTF8
Codec ID/Info                  : UTF-8 Plain Text
Duration                       : 1 h 57 min
Bit rate                       : 55 b/s
Frame rate                     : 0.226 FPS
Count of elements              : 1598
Stream size                    : 47.5 KiB (0%)
Language                       : English
Default                        : Yes
Forced                         : No

Text #2
ID                             : 4
Format                         : UTF-8
Codec ID                       : S_TEXT/UTF8
Codec ID/Info                  : UTF-8 Plain Text
Duration                       : 1 h 57 min
Bit rate                       : 55 b/s
Frame rate                     : 0.228 FPS
Count of elements              : 1613
Stream size                    : 47.6 KiB (0%)
Title                          : Latin American
Language                       : Spanish
Default                        : No
Forced                         : No

Text #3
ID                             : 5
Format                         : UTF-8
Codec ID                       : S_TEXT/UTF8
Codec ID/Info                  : UTF-8 Plain Text
Duration                       : 1 h 57 min
Bit rate                       : 43 b/s
Frame rate                     : 0.230 FPS
Count of elements              : 1627
Stream size                    : 37.1 KiB (0%)
Title                          : 中文简体
Language                       : Chinese
Default                        : Yes
Forced                         : No

Text #4
ID                             : 6
Format                         : ASS
Codec ID                       : S_TEXT/ASS
Codec ID/Info                  : Advanced Sub Station Alpha
Duration                       : 1 h 57 min
Bit rate                       : 170 b/s
Frame rate                     : 0.245 FPS
Count of elements              : 1727
Compression mode               : Lossless
Stream size                    : 147 KiB (0%)
Title                          : 中文简体&英文
Language                       : Chinese
Default                        : Yes
Forced                         : No

Text #5
ID                             : 7
Format                         : UTF-8
Codec ID                       : S_TEXT/UTF8
Codec ID/Info                  : UTF-8 Plain Text
Duration                       : 1 h 57 min
Bit rate                       : 43 b/s
Frame rate                     : 0.230 FPS
Count of elements              : 1627
Stream size                    : 37.1 KiB (0%)
Title                          : 中文繁体
Language                       : Chinese
Default                        : Yes
Forced                         : No

Text #6
ID                             : 8
Format                         : UTF-8
Codec ID                       : S_TEXT/UTF8
Codec ID/Info                  : UTF-8 Plain Text
Duration                       : 1 h 57 min
Bit rate                       : 42 b/s
Frame rate                     : 0.229 FPS
Count of elements              : 1616
Stream size                    : 37.1 KiB (0%)
Title                          : 中文粤语
Language                       : Chinese
Default                        : Yes
Forced                         : No



General
Complete name                  : G:\qB下载\Thor.Love.and.Thunder.2022.2160p.WEB-DL.DDP5.1.Atmos.HDR.HEVC-CMRG
Format                         : Matroska
Format version                 : Version 4
File size                      : 20.4 GiB
Duration                       : 1 h 58 min
Overall bit rate               : 24.6 Mb/s
Encoded date                   : UTC 2022-09-07 13:02:58
Writing application            : mkvmerge v70.0.0 ('Caught A Lite Sneeze') 64-bit
Writing library                : libebml v1.4.2 + libmatroska v1.6.4

Video
ID                             : 1
Format                         : HEVC
Format/Info                    : High Efficiency Video Coding
Format profile                 : Main 10@L5@High
HDR format                     : SMPTE ST 2086, HDR10 compatible
Codec ID                       : V_MPEGH/ISO/HEVC
Duration                       : 1 h 58 min
Bit rate                       : 23.3 Mb/s
Width                          : 3 840 pixels
Height                         : 1 608 pixels
Display aspect ratio           : 2.40:1
Frame rate mode                : Constant
Frame rate                     : 23.976 (24000/1001) FPS
Color space                    : YUV
Chroma subsampling             : 4:2:0 (Type 2)
Bit depth                      : 10 bits
Bits/(Pixel*Frame)             : 0.158
Stream size                    : 19.4 GiB (95%)
Language                       : English
Default                        : Yes
Forced                         : No
Color range                    : Limited
Color primaries                : BT.2020
Transfer characteristics       : PQ
Matrix coefficients            : BT.2020 non-constant
Mastering display color primar : BT.2020
Mastering display luminance    : min: 0.0050 cd/m2, max: 1000 cd/m2
Maximum Content Light Level    : 1863 cd/m2
Maximum Frame-Average Light Le : 980 cd/m2

Audio
ID                             : 2
Format                         : E-AC-3 JOC
Format/Info                    : Enhanced AC-3 with Joint Object Coding
Commercial name                : Dolby Digital Plus with Dolby Atmos
Codec ID                       : A_EAC3
Duration                       : 1 h 58 min
Bit rate mode                  : Constant
Bit rate                       : 768 kb/s
Channel(s)                     : 6 channels
Channel layout                 : L R C LFE Ls Rs
Sampling rate                  : 48.0 kHz
Frame rate                     : 31.250 FPS (1536 SPF)
Compression mode               : Lossy
Stream size                    : 653 MiB (3%)
Language                       : English
Service kind                   : Complete Main
Default                        : Yes
Forced                         : No
Complexity index               : 16
Number of dynamic objects      : 15
Bed channel count              : 1 channel
Bed channel configuration      : LFE

Text #1
ID                             : 3
Format                         : UTF-8
Codec ID                       : S_TEXT/UTF8
Codec ID/Info                  : UTF-8 Plain Text
Language                       : English
Default                        : No
Forced                         : No

Text #2
ID                             : 4
Format                         : UTF-8
Codec ID                       : S_TEXT/UTF8
Codec ID/Info                  : UTF-8 Plain Text
Title                          : Latin American
Language                       : Spanish
Default                        : No
Forced                         : No

Menu
00:00:00.000                   : en:Chapter 01
00:06:45.155                   : en:Chapter 02
00:10:11.319                   : en:Chapter 03
00:14:23.780                   : en:Chapter 04
00:18:13.426                   : en:Chapter 05
00:20:59.509                   : en:Chapter 06
00:21:47.807                   : en:Chapter 07
00:27:00.995                   : en:Chapter 08
00:28:16.196                   : en:Chapter 09
00:29:52.250                   : en:Chapter 10
00:31:24.509                   : en:Chapter 11
00:35:15.115                   : en:Chapter 12
00:38:40.445                   : en:Chapter 13
00:45:37.445                   : en:Chapter 14
00:53:04.225                   : en:Chapter 15
01:06:19.396                   : en:Chapter 16
01:14:16.915                   : en:Chapter 17
01:24:35.825                   : en:Chapter 18
01:28:31.186                   : en:Chapter 19
01:30:20.003                   : en:Chapter 20
01:34:17.657                   : en:Chapter 21
01:38:12.684                   : en:Chapter 22
01:44:45.535                   : en:Chapter 23
01:48:17.622                   : en:Chapter 24
01:50:03.436                   : en:Chapter 25
01:51:14.716                   : en:Chapter 26

资源速度为零或资源敏感被和谐时,推荐使用qBittorrent等下载软件,有条件的推荐115更好的下载软件!

下载地址:
以下为简繁粤&英文版本
游客,如果您要查看本帖隐藏内容请回复

游客,如果您要查看本帖隐藏内容请回复

游客,如果您要查看本帖隐藏内容请回复

游客,如果您要查看本帖隐藏内容请回复


以下为英文版本
游客,如果您要查看本帖隐藏内容请回复

游客,如果您要查看本帖隐藏内容请回复

游客,如果您要查看本帖隐藏内容请回复

游客,如果您要查看本帖隐藏内容请回复
游客,如果您要查看本帖隐藏内容请回复



以下为1080P高清版本
游客,如果您要查看本帖隐藏内容请回复









上一篇:安妮:纽约奇缘 [简繁粤中字] / Annie (2014) 4K高清版本下载
下一篇:野兽 / Beast (2022) 4K高清版本下载
回复

使用道具 举报

主题

帖子

0

积分

4K家园VIP

Rank: 9Rank: 9Rank: 9

积分
0
发表于 2022-9-7 22:28:33 | 显示全部楼层
好东西啊,但是为啥没速度啊,电线千兆飘过》》
回复 支持 2 反对 0

使用道具 举报

0

主题

1771

帖子

4921

积分

4K家园VIP

Rank: 9Rank: 9Rank: 9

积分
4921
发表于 2022-9-7 21:40:28 | 显示全部楼层
多发些资源啊
回复 支持 反对

使用道具 举报

2

主题

1379

帖子

3987

积分

4K家园VIP

Rank: 9Rank: 9Rank: 9

积分
3987
发表于 2022-9-7 21:40:28 | 显示全部楼层
我擦!我要沙发!
回复 支持 反对

使用道具 举报

1

主题

1472

帖子

4272

积分

4K家园VIP

Rank: 9Rank: 9Rank: 9

积分
4272
发表于 2022-9-7 22:12:18 来自手机 | 显示全部楼层
边撸边过
回复 支持 反对

使用道具 举报

主题

帖子

18

积分

新手上路

Rank: 1

积分
18
发表于 2022-9-7 22:30:31 | 显示全部楼层
11234567891032
回复 支持 反对

使用道具 举报

主题

帖子

69

积分

新手上路

Rank: 1

积分
69
发表于 2022-9-7 22:34:48 | 显示全部楼层
牛批  下载冲冲冲
回复 支持 反对

使用道具 举报

主题

帖子

21

积分

新手上路

Rank: 1

积分
21
发表于 2022-9-7 22:35:16 | 显示全部楼层
好资源大家分享,感谢楼主
回复 支持 反对

使用道具 举报

主题

帖子

6

积分

新手上路

Rank: 1

积分
6
发表于 2022-9-7 22:48:07 | 显示全部楼层
牛逼.......................
回复

使用道具 举报

主题

帖子

0

积分

新手上路

Rank: 1

积分
0
发表于 2022-9-7 23:06:42 | 显示全部楼层
感谢分享
回复

使用道具 举报

您需要登录后才可以回帖 登录 | 立即注册

本版积分规则

精彩图文
Archiver|手机版|TAG|Sitemap|新帖|专题|联系我们:邮箱: 4kjia.com@gmail.com   

4k家园   ©2019