[4K电影] 野兽 / Beast (2022) 4K高清版本下载

[复制链接]

2327

主题

2476

帖子

1万

积分

超级版主

Rank: 8Rank: 8

积分
17940
 楼主| 发表于 2022-9-8 14:55:34 | 显示全部楼层 |阅读模式
本帖最后由 最爱4K哟 于 2022-9-8 18:46 编辑

QQ图片20220908143857_副本.png

◎译  名 野兽 / 兽(台) / 兽猎(港)
◎片  名 Beast
◎年  代 2022
◎产  地 美国
◎类  别 惊悚 / 恐怖 / 冒险
◎语  言 英语
◎上映日期 2022-08-19(美国)
◎IMDb评分 5.9/10 from 6987 users 更新 : 2022-09-08
◎IMDb链接 https://www.imdb.com/title/tt13223398/
◎豆瓣评分 5.9/10 from 210 users 更新 : 2022-09-08
◎豆瓣链接 https://movie.douban.com/subject/35601980/
◎片  长 93分钟
◎导  演 巴塔萨·科马库 Baltasar Kormákur
◎编  剧 瑞安·恩格尔 Ryan Engle / 詹姆·普里马克·沙利文 Jaime Primak Sullivan
◎主  演 伊德里斯·艾尔巴 Idris Elba
                   利亚·杰弗里斯 Leah Jeffries
                   伊亚娜·哈雷 Iyana Halley
                   沙尔托·科普雷 Sharlto Copley
                   马丁·门罗 Martin Munro
                   利亚布亚·贡戈 Liyabuya Gongo
                   丹尼尔·哈德比 Daniel Hadebe
                   塔佩洛·塞博戈迪 Thapelo Sebogodi
                   克里斯·兰加 Chris Langa
                   姆杜杜兹·马文贝拉 Mduduzi Mavimbela
                   梅尔·贾森 Mel Jarnson
                   阿玛拉·米勒 Amara Miller


◎简  介


         奈特博士(伊德里斯·艾尔巴 饰)刚刚经历丧妻之痛,他决定带着他的两个女儿重返他和妻子第一次相遇的南非,并前往由他的世交好友和野生动物生物学家马丁·拜托斯(沙尔托·科普雷 饰)管理的野生动物保护区,展开一场计划已久的旅行。但是这场疗伤之旅却变成一场惊惧可怕的求生之旅, 因为他们被一头逃出贪婪残暴的盗猎者毒手之后,将所有人类都视为敌人的巨狮盯上并猎捕。
Video
ID : 1
Format : HEVC
Format/Info : High Efficiency Video Coding
Format profile : Main 10@L5@Main
HDR format : SMPTE ST 2094 App 4, Version 1, HDR10+ Profile B compatible
Codec ID : V_MPEGH/ISO/HEVC
Duration : 1 h 32 min
Bit rate : 14.7 Mb/s
Width : 3 840 pixels
Height : 1 600 pixels
Display aspect ratio : 2.40:1
Frame rate mode : Constant
Frame rate : 23.976 (24000/1001) FPS
Color space : YUV
Chroma subsampling : 4:2:0
Bit depth : 10 bits
Bits/(Pixel*Frame) : 0.100
Stream size : 9.55 GiB (95%)
Language : English
Default : Yes
Forced : No
Color range : Limited
Color primaries : BT.2020
Transfer characteristics : PQ
Matrix coefficients : BT.2020 non-constant
Mastering display color primaries : Display P3
Mastering display luminance : min: 0.0050 cd/m2, max: 1000 cd/m2
Maximum Content Light Level : 485 cd/m2
Maximum Frame-Average Light Level : 62 cd/m2

Audio
ID : 2
Format : E-AC-3 JOC
Format/Info : Enhanced AC-3 with Joint Object Coding
Commercial name : Dolby Digital Plus with Dolby Atmos
Codec ID : A_EAC3
Duration : 1 h 32 min
Bit rate mode : Constant
Bit rate : 768 kb/s
Channel(s) : 6 channels
Channel layout : L R C LFE Ls Rs
Sampling rate : 48.0 kHz
Frame rate : 31.250 FPS (1536 SPF)
Compression mode : Lossy
Stream size : 510 MiB (5%)
Language : English
Service kind : Complete Main
Default : Yes
Forced : No
Complexity index : 16
Number of dynamic objects : 15
Bed channel count : 1 channel
Bed channel configuration : LFE

Text #1
ID : 3
Format : UTF-8
Codec ID : S_TEXT/UTF8
Codec ID/Info : UTF-8 Plain Text
Duration : 24 min 46 s
Bit rate : 2 b/s
Frame rate : 0.018 FPS
Count of elements : 27
Stream size : 495 Bytes (0%)
Title : Forced
Language : English
Default : No
Forced : Yes

Text #2
ID : 4
Format : UTF-8
Codec ID : S_TEXT/UTF8
Codec ID/Info : UTF-8 Plain Text
Duration : 1 h 32 min
Bit rate : 86 b/s
Frame rate : 0.363 FPS
Count of elements : 2022
Stream size : 59.0 KiB (0%)
Language : English
Default : No
Forced : No

Text #3
ID : 5
Format : UTF-8
Codec ID : S_TEXT/UTF8
Codec ID/Info : UTF-8 Plain Text
Duration : 1 h 26 min
Bit rate : 74 b/s
Frame rate : 0.302 FPS
Count of elements : 1561
Stream size : 46.8 KiB (0%)
Title : Canadian
Language : French
Default : No
Forced : No

资源速度为零或资源敏感被和谐时,推荐使用qBittorrent等下载软件,有条件的推荐115更好的下载软件!

下载地址:

游客,如果您要查看本帖隐藏内容请回复

游客,如果您要查看本帖隐藏内容请回复

游客,如果您要查看本帖隐藏内容请回复
游客,如果您要查看本帖隐藏内容请回复

游客,如果您要查看本帖隐藏内容请回复

游客,如果您要查看本帖隐藏内容请回复

游客,如果您要查看本帖隐藏内容请回复






上一篇:雷神4:爱与雷霆 [DIY简繁粤&英文] (2022) 4K高清版本下载
下一篇:欧比旺:绝地归来[简繁粤中字] (2022) 4K高清版本下载
回复

使用道具 举报

40

主题

1542

帖子

4424

积分

4K家园VIP

Rank: 9Rank: 9Rank: 9

积分
4424
发表于 2022-9-8 14:55:37 来自手机 | 显示全部楼层
试试先,好用再说
回复 支持 反对

使用道具 举报

0

主题

8

帖子

87

积分

新手上路

Rank: 1

积分
87
发表于 2022-9-8 15:44:24 | 显示全部楼层
谢谢分享
回复

使用道具 举报

0

主题

1

帖子

6

积分

新手上路

Rank: 1

积分
6
发表于 2022-9-8 18:06:27 | 显示全部楼层
新人报道顶一个
回复 支持 反对

使用道具 举报

5

主题

1504

帖子

4356

积分

4K家园VIP

Rank: 9Rank: 9Rank: 9

积分
4356
发表于 2022-9-8 18:48:16 | 显示全部楼层
4K家园资源不错,前排支持
回复 支持 反对

使用道具 举报

0

主题

2

帖子

13

积分

新手上路

Rank: 1

积分
13
发表于 2022-9-8 18:56:44 | 显示全部楼层
2222qqqq
回复

使用道具 举报

2

主题

1486

帖子

4262

积分

4K家园VIP

Rank: 9Rank: 9Rank: 9

积分
4262
发表于 2022-9-8 20:08:02 | 显示全部楼层
呵呵。。。
回复 支持 反对

使用道具 举报

0

主题

8663

帖子

2万

积分

4K家园VIP

Rank: 9Rank: 9Rank: 9

积分
20189
发表于 2022-9-8 20:09:31 | 显示全部楼层
太好啦&萬分感謝版主的無私發佈分享%
回复 支持 反对

使用道具 举报

39

主题

1493

帖子

4275

积分

4K家园VIP

Rank: 9Rank: 9Rank: 9

积分
4275
发表于 2022-9-8 20:17:28 来自手机 | 显示全部楼层
站位支持
回复 支持 反对

使用道具 举报

1

主题

1379

帖子

3969

积分

4K家园VIP

Rank: 9Rank: 9Rank: 9

积分
3969
发表于 2022-9-8 21:42:33 | 显示全部楼层
4K版的应该更清晰吧
回复 支持 反对

使用道具 举报

您需要登录后才可以回帖 登录 | 立即注册

本版积分规则

精彩图文
Archiver|手机版|TAG|Sitemap|新帖|专题|联系我们:邮箱: 4kjia.com@gmail.com   

4k家园   ©2019