[4K电影] 欧比旺:绝地归来[简繁粤中字] (2022) 4K高清版本下载

[复制链接]

2327

主题

2476

帖子

1万

积分

超级版主

Rank: 8Rank: 8

积分
17940
 楼主| 发表于 2022-9-8 19:41:29 | 显示全部楼层 |阅读模式
本帖最后由 最爱4K哟 于 2022-9-8 19:42 编辑

QQ图片20220908193337_副本.png

◎标  题 欧比旺:绝地归来
◎译  名 欧比王肯诺比:绝地归来(台) / 欧比王肯诺比:绝地回归(港)
◎片  名 Obi-Wan Kenobi: A Jedi’s Return
◎年  代 2022
◎产  地 美国
◎类  别 纪录片
◎语  言 英语
◎上映日期 2022-09-08(美国)
◎IMDb评分 7.8/10 from 13 users 更新 : 2022-09-08
◎IMDb链接 https://www.imdb.com/title/tt21860836/
◎豆瓣评分 0/10 from 0 users
◎豆瓣链接 https://movie.douban.com/subject/36068872/
◎片  长 59分钟
◎演  员 伊万·麦克格雷格 Ewan McGregor
       海登·克里斯滕森 Hayden Christensen
       黛博拉·周 Deborah Chow
       摩西·英格拉姆 Moses Ingram
       维维恩·莱拉·布莱尔 Vivien Lyra Blair


◎简  介


  Disney+原创纪录片《欧比旺:绝地归来》,披露《欧比旺》的创作历程,从未曝光的幕后花絮,让粉丝们再次感受星战的魅力。

Video
ID : 1
Format : HEVC
Format/Info : High Efficiency Video Coding
Format profile : Main 10@L5@High
HDR format : SMPTE ST 2086, HDR10 compatible
Codec ID : V_MPEGH/ISO/HEVC
Duration : 59 min 5 s
Bit rate : 13.9 Mb/s
Width : 3 840 pixels
Height : 2 160 pixels
Display aspect ratio : 16:9
Frame rate mode : Constant
Frame rate : 24.000 FPS
Color space : YUV
Chroma subsampling : 4:2:0
Bit depth : 10 bits
Bits/(Pixel*Frame) : 0.070
Stream size : 5.74 GiB (98%)
Language : English
Default : Yes
Forced : No
Color range : Limited
Color primaries : BT.2020
Transfer characteristics : PQ
Matrix coefficients : BT.2020 non-constant
Mastering display color primaries : Display P3
Mastering display luminance : min: 0.0000 cd/m2, max: 1000 cd/m2

Audio
ID : 2
Format : E-AC-3
Format/Info : Enhanced AC-3
Commercial name : Dolby Digital Plus
Codec ID : A_EAC3
Duration : 59 min 5 s
Bit rate mode : Constant
Bit rate : 256 kb/s
Channel(s) : 6 channels
Channel layout : L R C LFE Ls Rs
Sampling rate : 48.0 kHz
Frame rate : 31.250 FPS (1536 SPF)
Compression mode : Lossy
Stream size : 108 MiB (2%)
Language : English
Service kind : Complete Main
Default : Yes
Forced : No

Text #1
ID : 3
Format : UTF-8
Codec ID : S_TEXT/UTF8
Codec ID/Info : UTF-8 Plain Text
Duration : 56 min 6 s
Bit rate : 119 b/s
Frame rate : 0.293 FPS
Count of elements : 988
Stream size : 49.3 KiB (0%)
Title : English (SDH)
Language : English
Default : No
Forced : No

Text #2
ID : 4
Format : UTF-8
Codec ID : S_TEXT/UTF8
Codec ID/Info : UTF-8 Plain Text
Duration : 58 min 40 s
Bit rate : 100 b/s
Frame rate : 0.266 FPS
Count of elements : 937
Stream size : 43.3 KiB (0%)
Title : Čeština
Language : Czech
Default : No
Forced : No

Text #3
ID : 5
Format : UTF-8
Codec ID : S_TEXT/UTF8
Codec ID/Info : UTF-8 Plain Text
Duration : 58 min 27 s
Bit rate : 97 b/s
Frame rate : 0.265 FPS
Count of elements : 928
Stream size : 41.9 KiB (0%)
Title : Dansk
Language : Danish
Default : No
Forced : No

Text #4
ID : 6
Format : UTF-8
Codec ID : S_TEXT/UTF8
Codec ID/Info : UTF-8 Plain Text
Duration : 58 min 39 s
Bit rate : 101 b/s
Frame rate : 0.265 FPS
Count of elements : 934
Stream size : 43.4 KiB (0%)
Title : Deutsch
Language : German
Default : No
Forced : No

Text #5
ID : 7
Format : UTF-8
Codec ID : S_TEXT/UTF8
Codec ID/Info : UTF-8 Plain Text
Duration : 58 min 40 s
Bit rate : 182 b/s
Frame rate : 0.268 FPS
Count of elements : 945
Stream size : 78.3 KiB (0%)
Title : Greek
Language : Greek
Default : No
Forced : No

Text #6
ID : 8
Format : UTF-8
Codec ID : S_TEXT/UTF8
Codec ID/Info : UTF-8 Plain Text
Duration : 58 min 39 s
Bit rate : 97 b/s
Frame rate : 0.265 FPS
Count of elements : 932
Stream size : 41.8 KiB (0%)
Title : Español (Latinoamericano)
Language : Spanish
Default : No
Forced : No

Text #7
ID : 9
Format : UTF-8
Codec ID : S_TEXT/UTF8
Codec ID/Info : UTF-8 Plain Text
Duration : 58 min 38 s
Bit rate : 94 b/s
Frame rate : 0.265 FPS
Count of elements : 933
Stream size : 40.6 KiB (0%)
Title : Español
Language : Spanish
Default : No
Forced : No

Text #8
ID : 10
Format : UTF-8
Codec ID : S_TEXT/UTF8
Codec ID/Info : UTF-8 Plain Text
Duration : 58 min 27 s
Bit rate : 98 b/s
Frame rate : 0.265 FPS
Count of elements : 930
Stream size : 42.0 KiB (0%)
Title : Suomi
Language : Finnish
Default : No
Forced : No

Text #9
ID : 11
Format : UTF-8
Codec ID : S_TEXT/UTF8
Codec ID/Info : UTF-8 Plain Text
Duration : 58 min 39 s
Bit rate : 81 b/s
Frame rate : 0.266 FPS
Count of elements : 935
Stream size : 34.9 KiB (0%)
Title : Français
Language : French
Default : No
Forced : No

Text #10
ID : 12
Format : UTF-8
Codec ID : S_TEXT/UTF8
Codec ID/Info : UTF-8 Plain Text
Duration : 56 min 7 s
Bit rate : 95 b/s
Frame rate : 0.277 FPS
Count of elements : 934
Stream size : 39.2 KiB (0%)
Title : Français (Canadien)
Language : French
Default : No
Forced : No

Text #11
ID : 13
Format : UTF-8
Codec ID : S_TEXT/UTF8
Codec ID/Info : UTF-8 Plain Text
Duration : 58 min 40 s
Bit rate : 96 b/s
Frame rate : 0.265 FPS
Count of elements : 932
Stream size : 41.6 KiB (0%)
Title : Magyar
Language : Hungarian
Default : No
Forced : No

Text #12
ID : 14
Format : UTF-8
Codec ID : S_TEXT/UTF8
Codec ID/Info : UTF-8 Plain Text
Duration : 58 min 39 s
Bit rate : 104 b/s
Frame rate : 0.265 FPS
Count of elements : 933
Stream size : 44.7 KiB (0%)
Title : Italiano
Language : Italian
Default : No
Forced : No

Text #13
ID : 15
Format : UTF-8
Codec ID : S_TEXT/UTF8
Codec ID/Info : UTF-8 Plain Text
Duration : 58 min 36 s
Bit rate : 82 b/s
Frame rate : 0.235 FPS
Count of elements : 826
Stream size : 35.4 KiB (0%)
Title : Japanese
Language : Japanese
Default : No
Forced : No

Text #14
ID : 16
Format : UTF-8
Codec ID : S_TEXT/UTF8
Codec ID/Info : UTF-8 Plain Text
Duration : 58 min 40 s
Bit rate : 107 b/s
Frame rate : 0.269 FPS
Count of elements : 946
Stream size : 46.1 KiB (0%)
Title : Korean
Language : Korean
Default : No
Forced : No

Text #15
ID : 17
Format : UTF-8
Codec ID : S_TEXT/UTF8
Codec ID/Info : UTF-8 Plain Text
Duration : 58 min 27 s
Bit rate : 85 b/s
Frame rate : 0.230 FPS
Count of elements : 808
Stream size : 36.4 KiB (0%)
Title : Nederlands
Language : Dutch
Default : No
Forced : No

Text #16
ID : 18
Format : UTF-8
Codec ID : S_TEXT/UTF8
Codec ID/Info : UTF-8 Plain Text
Duration : 58 min 27 s
Bit rate : 89 b/s
Frame rate : 0.266 FPS
Count of elements : 933
Stream size : 38.1 KiB (0%)
Title : Norsk
Language : Norwegian
Default : No
Forced : No

Text #17
ID : 19
Format : UTF-8
Codec ID : S_TEXT/UTF8
Codec ID/Info : UTF-8 Plain Text
Duration : 58 min 40 s
Bit rate : 89 b/s
Frame rate : 0.263 FPS
Count of elements : 925
Stream size : 38.6 KiB (0%)
Title : Polski
Language : Polish
Default : No
Forced : No

Text #18
ID : 20
Format : UTF-8
Codec ID : S_TEXT/UTF8
Codec ID/Info : UTF-8 Plain Text
Duration : 58 min 38 s
Bit rate : 106 b/s
Frame rate : 0.265 FPS
Count of elements : 933
Stream size : 45.7 KiB (0%)
Title : Português (Brasil)
Language : Portuguese
Default : No
Forced : No

Text #19
ID : 21
Format : UTF-8
Codec ID : S_TEXT/UTF8
Codec ID/Info : UTF-8 Plain Text
Duration : 58 min 38 s
Bit rate : 89 b/s
Frame rate : 0.266 FPS
Count of elements : 935
Stream size : 38.6 KiB (0%)
Title : Português
Language : Portuguese
Default : No
Forced : No

Text #20
ID : 22
Format : UTF-8
Codec ID : S_TEXT/UTF8
Codec ID/Info : UTF-8 Plain Text
Duration : 58 min 40 s
Bit rate : 105 b/s
Frame rate : 0.266 FPS
Count of elements : 937
Stream size : 45.4 KiB (0%)
Title : Română
Language : Romanian
Default : No
Forced : No

Text #21
ID : 23
Format : UTF-8
Codec ID : S_TEXT/UTF8
Codec ID/Info : UTF-8 Plain Text
Duration : 58 min 38 s
Bit rate : 96 b/s
Frame rate : 0.266 FPS
Count of elements : 936
Stream size : 41.4 KiB (0%)
Title : Slovenčina
Language : Slovak
Default : No
Forced : No

Text #22
ID : 24
Format : UTF-8
Codec ID : S_TEXT/UTF8
Codec ID/Info : UTF-8 Plain Text
Duration : 58 min 27 s
Bit rate : 78 b/s
Frame rate : 0.181 FPS
Count of elements : 636
Stream size : 33.5 KiB (0%)
Title : Svenska
Language : Swedish
Default : No
Forced : No

Text #23
ID : 25
Format : UTF-8
Codec ID : S_TEXT/UTF8
Codec ID/Info : UTF-8 Plain Text
Duration : 58 min 40 s
Bit rate : 97 b/s
Frame rate : 0.266 FPS
Count of elements : 936
Stream size : 41.7 KiB (0%)
Title : Türkçe
Language : Turkish
Default : No
Forced : No

Text #24
ID : 26
Format : UTF-8
Codec ID : S_TEXT/UTF8
Codec ID/Info : UTF-8 Plain Text
Duration : 58 min 40 s
Bit rate : 66 b/s
Frame rate : 0.269 FPS
Count of elements : 946
Stream size : 28.4 KiB (0%)
Title : 中文(繁体)
Language : 中文
Default : No
Forced : No

Text #25
ID : 27
Format : UTF-8
Codec ID : S_TEXT/UTF8
Codec ID/Info : UTF-8 Plain Text
Duration : 58 min 40 s
Bit rate : 71 b/s
Frame rate : 0.269 FPS
Count of elements : 946
Stream size : 30.5 KiB (0%)
Title : 中文(粤语)
Language : 中文
Default : No
Forced : No

Text #26
ID : 28
Format : UTF-8
Codec ID : S_TEXT/UTF8
Codec ID/Info : UTF-8 Plain Text
Duration : 58 min 40 s
Bit rate : 87 b/s
Frame rate : 0.269 FPS
Count of elements : 946
Stream size : 37.5 KiB (0%)
Title : 中文(简体)
Language : 中文
Default : No
Forced : No

资源速度为零或资源敏感被和谐时,推荐使用qBittorrent等下载软件,有条件的推荐115更好的下载软件!

下载地址:


游客,如果您要查看本帖隐藏内容请回复

游客,如果您要查看本帖隐藏内容请回复

游客,如果您要查看本帖隐藏内容请回复





上一篇:野兽 / Beast (2022) 4K高清版本下载
下一篇:匹诺曹[简繁粤中字] / Pinocchio (2022) 4K高清版本下载
回复

使用道具 举报

1

主题

1368

帖子

4122

积分

4K家园VIP

Rank: 9Rank: 9Rank: 9

积分
4122
发表于 2022-9-8 19:41:37 来自手机 | 显示全部楼层
支持一下楼主,顶起来
回复 支持 反对

使用道具 举报

0

主题

2

帖子

9

积分

新手上路

Rank: 1

积分
9
发表于 2022-9-8 19:50:21 | 显示全部楼层
dddd谢楼主
回复 支持 反对

使用道具 举报

0

主题

8663

帖子

2万

积分

4K家园VIP

Rank: 9Rank: 9Rank: 9

积分
20189
发表于 2022-9-8 20:08:55 | 显示全部楼层
太好啦&萬分感謝版主的無私發佈分享%
回复 支持 反对

使用道具 举报

0

主题

14

帖子

165

积分

新手上路

Rank: 1

积分
165
发表于 2022-9-9 11:26:08 | 显示全部楼层
感谢分享
回复

使用道具 举报

57

主题

1553

帖子

4509

积分

4K家园VIP

Rank: 9Rank: 9Rank: 9

积分
4509
发表于 2022-9-11 22:21:04 | 显示全部楼层
楼猪辛苦了,支持一下分享好资源
回复 支持 反对

使用道具 举报

48

主题

1553

帖子

4469

积分

4K家园VIP

Rank: 9Rank: 9Rank: 9

积分
4469
发表于 2022-9-13 11:11:25 | 显示全部楼层
有空一起交流一下
回复 支持 反对

使用道具 举报

56

主题

1501

帖子

4359

积分

4K家园VIP

Rank: 9Rank: 9Rank: 9

积分
4359
发表于 2022-9-19 00:29:42 | 显示全部楼层
感谢楼主的分享,还是阔以滴
回复 支持 反对

使用道具 举报

1

主题

1327

帖子

3799

积分

4K家园VIP

Rank: 9Rank: 9Rank: 9

积分
3799
发表于 2022-9-19 03:20:25 来自手机 | 显示全部楼层
站位支持
回复 支持 反对

使用道具 举报

您需要登录后才可以回帖 登录 | 立即注册

本版积分规则

精彩图文
Archiver|手机版|TAG|Sitemap|新帖|专题|联系我们:邮箱: 4kjia.com@gmail.com   

4k家园   ©2019