[4K电影] 匹诺曹[简繁粤中字] / Pinocchio (2022) 4K高清版本下载

[复制链接]

2327

主题

2476

帖子

1万

积分

超级版主

Rank: 8Rank: 8

积分
17940
 楼主| 发表于 2022-9-8 19:50:05 | 显示全部楼层 |阅读模式
QQ图片20220908193246_副本.png

◎标  题 匹诺曹
◎译  名 木偶奇遇记(港 / 台)
◎片  名 Pinocchio
◎年  代 2022
◎产  地 美国
◎类  别 剧情 / 喜剧 / 歌舞 / 家庭 / 奇幻 / 冒险
◎语  言 英语
◎上映日期 2022-09-08(美国网络)
◎IMDb评分 6.0/10 from 70 users 更新 : 2022-09-08
◎IMDb链接 https://www.imdb.com/title/tt4593060/
◎豆瓣评分 0/10 from 0 users
◎豆瓣链接 https://movie.douban.com/subject/26363200/
◎片  长 105分钟
◎导  演 罗伯特·泽米吉斯 Robert Zemeckis
◎编  剧 卡洛·科洛迪 Carlo Collodi / 西蒙·法纳比 Simon Farnaby / 克里斯·韦兹 Chris Weitz / 罗伯特·泽米吉斯 Robert Zemeckis
◎演  员 汤姆·汉克斯 Tom Hanks
       本杰明·埃文·安斯沃思 Benjamin Evan Ainsworth
       卢克·伊万斯 Luke Evans
       辛西娅·艾莉佛 Cynthia Erivo
       约瑟夫·高登-莱维特 Joseph Gordon-Levitt
       科甘-迈克尔·凯 Keegan-Michael Key
       洛南·布雷科 Lorraine Bracco
       希拉·阿蒂姆 Sheila Atim
       汉娜·弗林 Hannah Flynn
       亚伦·史维斯查 Alan Silvestri
       唐·伯吉斯 Don Burgess
       乔安娜·约翰斯顿 Joanna Johnston

◎简  介  

  迪士尼将动画片《匹诺曹》(Pinocchio)改编成真人电影,由罗伯特·泽米吉斯(《阿甘正传》《回到未来》)执导。
迪士尼1940年版动画片《匹诺曹》(Pinocchio)是根据意大利作家卡洛·科洛迪(Carlo Collodi)的《木偶奇遇记》(The Adventures Of Pinocchio)改编的,曾获两项奥斯卡奖。故事主要讲述老木匠杰佩托(Geppetto)造了一个木偶,给他起名叫匹诺曹。匹诺曹一心想成为真正的男孩,但因为撒谎学坏而受到惩罚,变成了驴被坏人贩卖的冒险经历。
匹诺曹的最大特点就是一撒谎鼻子就会变长,这个典故现在也被全世界的人们所广泛使用。
迪士尼不是唯一一个打算拍《匹诺曹》电影的,吉尔摩·德尔托罗(Guillermo del Toro)和Netflix合作,将于2022年12月推出3D定格动画版《匹诺曹》(Pinocchi...

Video
ID : 1
Format : HEVC
Format/Info : High Efficiency Video Coding
Format profile : Main 10@L5@High
HDR format : Dolby Vision, Version 1.0, dvhe.05.06, BL+RPU
Codec ID : dvhe
Codec ID/Info : High Efficiency Video Coding with Dolby Vision
Duration : 1 h 45 min
Bit rate : 16.5 Mb/s
Width : 3 840 pixels
Height : 2 160 pixels
Display aspect ratio : 16:9
Frame rate mode : Constant
Frame rate : 24.000 FPS
Color space : YUV
Chroma subsampling : 4:2:0
Bit depth : 10 bits
Bits/(Pixel*Frame) : 0.083
Stream size : 12.1 GiB (96%)
Default : Yes
Alternate group : 1
Encoded date : UTC 2022-09-08 07:54:13
Tagged date : UTC 2022-09-08 07:58:16
Color range : Full
Codec configuration box : hvcC+dvcC

Audio
ID : 2
Format : E-AC-3 JOC
Format/Info : Enhanced AC-3 with Joint Object Coding
Commercial name : Dolby Digital Plus with Dolby Atmos
Codec ID : ec-3
Duration : 1 h 45 min
Bit rate mode : Constant
Bit rate : 768 kb/s
Maximum bit rate : 811 kb/s
Channel(s) : 6 channels
Channel layout : L R C LFE Ls Rs
Sampling rate : 48.0 kHz
Frame rate : 31.250 FPS (1536 SPF)
Compression mode : Lossy
Stream size : 578 MiB (4%)
Title : English
Language : English
Service kind : Complete Main
Default : Yes
Alternate group : 1
Tagged date : UTC 2022-09-08 07:58:16
Complexity index : Not present / 16
Number of dynamic objects : 15
Bed channel count : 1 channel
Bed channel configuration : LFE

Text #1
ID : 3
Format : Timed Text
Codec ID : tx3g
Duration : 1 h 38 min
Bit rate mode : Variable
Bit rate : 82 b/s
Frame rate : 0.528 FPS
Stream size : 59.4 KiB (0%)
Title : English
Language : English
Forced : No
Encoded date : UTC 2022-09-08 07:58:14
Tagged date : UTC 2022-09-08 07:58:16

Text #2
ID : 4
Format : Timed Text
Codec ID : tx3g
Duration : 1 h 44 min
Bit rate mode : Variable
Bit rate : 55 b/s
Frame rate : 0.348 FPS
Stream size : 42.4 KiB (0%)
Title : 中文(粤语)
Language : 中文
Forced : No
Encoded date : UTC 2022-09-08 07:58:14
Tagged date : UTC 2022-09-08 07:58:16

Text #3
ID : 5
Format : Timed Text
Codec ID : tx3g
Duration : 1 h 44 min
Bit rate mode : Variable
Bit rate : 58 b/s
Frame rate : 0.348 FPS
Stream size : 44.5 KiB (0%)
Title : 中文(简体)
Language : 中文
Forced : No
Encoded date : UTC 2022-09-08 07:58:14
Tagged date : UTC 2022-09-08 07:58:16

Text #4
ID : 6
Format : Timed Text
Codec ID : tx3g
Duration : 1 h 44 min
Bit rate mode : Variable
Bit rate : 56 b/s
Frame rate : 0.348 FPS
Stream size : 42.8 KiB (0%)
Title : 中文(繁体)
Language : 中文
Forced : No
Encoded date : UTC 2022-09-08 07:58:14
Tagged date : UTC 2022-09-08 07:58:16

Text #5
ID : 7
Format : Timed Text
Codec ID : tx3g
Duration : 1 h 44 min
Bit rate mode : Variable
Bit rate : 63 b/s
Frame rate : 0.345 FPS
Stream size : 48.4 KiB (0%)
Title : Czech
Language : Czech
Forced : No
Encoded date : UTC 2022-09-08 07:58:14
Tagged date : UTC 2022-09-08 07:58:16

Text #6
ID : 8
Format : Timed Text
Codec ID : tx3g
Duration : 1 h 44 min
Bit rate mode : Variable
Bit rate : 57 b/s
Frame rate : 0.306 FPS
Stream size : 43.7 KiB (0%)
Title : Danish
Language : Danish
Forced : No
Encoded date : UTC 2022-09-08 07:58:14
Tagged date : UTC 2022-09-08 07:58:16

Text #7
ID : 9
Format : Timed Text
Codec ID : tx3g
Duration : 1 h 44 min
Bit rate mode : Variable
Bit rate : 59 b/s
Frame rate : 0.340 FPS
Stream size : 45.4 KiB (0%)
Title : Dutch
Language : Dutch
Forced : No
Encoded date : UTC 2022-09-08 07:58:14
Tagged date : UTC 2022-09-08 07:58:16

Text #8
ID : 10
Format : Timed Text
Codec ID : tx3g
Duration : 1 h 44 min
Bit rate mode : Variable
Bit rate : 53 b/s
Frame rate : 0.316 FPS
Stream size : 40.7 KiB (0%)
Title : Dutch
Language : Dutch
Forced : No
Encoded date : UTC 2022-09-08 07:58:14
Tagged date : UTC 2022-09-08 07:58:16

Text #9
ID : 11
Format : Timed Text
Codec ID : tx3g
Duration : 1 h 44 min
Bit rate mode : Variable
Bit rate : 57 b/s
Frame rate : 0.344 FPS
Stream size : 43.7 KiB (0%)
Title : Finnish
Language : Finnish
Forced : No
Encoded date : UTC 2022-09-08 07:58:14
Tagged date : UTC 2022-09-08 07:58:16

Text #10
ID : 12
Format : Timed Text
Codec ID : tx3g
Duration : 1 h 44 min
Bit rate mode : Variable
Bit rate : 59 b/s
Frame rate : 0.398 FPS
Stream size : 45.0 KiB (0%)
Title : French
Language : French
Forced : No
Encoded date : UTC 2022-09-08 07:58:14
Tagged date : UTC 2022-09-08 07:58:16

Text #11
ID : 13
Format : Timed Text
Codec ID : tx3g
Duration : 1 h 44 min
Bit rate mode : Variable
Bit rate : 59 b/s
Frame rate : 0.332 FPS
Stream size : 45.5 KiB (0%)
Title : German
Language : German
Forced : No
Encoded date : UTC 2022-09-08 07:58:14
Tagged date : UTC 2022-09-08 07:58:16

Text #12
ID : 14
Format : Timed Text
Codec ID : tx3g
Duration : 1 h 44 min
Bit rate mode : Variable
Bit rate : 101 b/s
Frame rate : 0.346 FPS
Stream size : 77.9 KiB (0%)
Title : Greek
Language : Greek
Forced : No
Encoded date : UTC 2022-09-08 07:58:14
Tagged date : UTC 2022-09-08 07:58:16

Text #13
ID : 15
Format : Timed Text
Codec ID : tx3g
Duration : 1 h 44 min
Bit rate mode : Variable
Bit rate : 60 b/s
Frame rate : 0.346 FPS
Stream size : 45.9 KiB (0%)
Title : Hungarian
Language : Hungarian
Forced : No
Encoded date : UTC 2022-09-08 07:58:15
Tagged date : UTC 2022-09-08 07:58:16

Text #14
ID : 16
Format : Timed Text
Codec ID : tx3g
Duration : 1 h 44 min
Bit rate mode : Variable
Bit rate : 62 b/s
Frame rate : 0.347 FPS
Stream size : 47.9 KiB (0%)
Title : Italian
Language : Italian
Forced : No
Encoded date : UTC 2022-09-08 07:58:15
Tagged date : UTC 2022-09-08 07:58:16

Text #15
ID : 17
Format : Timed Text
Codec ID : tx3g
Duration : 1 h 44 min
Bit rate mode : Variable
Bit rate : 58 b/s
Frame rate : 0.384 FPS
Stream size : 44.5 KiB (0%)
Title : Japanese
Language : Japanese
Forced : No
Encoded date : UTC 2022-09-08 07:58:15
Tagged date : UTC 2022-09-08 07:58:16

Text #16
ID : 18
Format : Timed Text
Codec ID : tx3g
Duration : 1 h 44 min
Bit rate mode : Variable
Bit rate : 61 b/s
Frame rate : 0.349 FPS
Stream size : 46.8 KiB (0%)
Title : Korean
Language : Korean
Forced : No
Encoded date : UTC 2022-09-08 07:58:15
Tagged date : UTC 2022-09-08 07:58:16

Text #17
ID : 19
Format : Timed Text
Codec ID : tx3g
Duration : 1 h 44 min
Bit rate mode : Variable
Bit rate : 58 b/s
Frame rate : 0.347 FPS
Stream size : 44.5 KiB (0%)
Title : Norwegian
Language : Norwegian
Forced : No
Encoded date : UTC 2022-09-08 07:58:15
Tagged date : UTC 2022-09-08 07:58:16

Text #18
ID : 20
Format : Timed Text
Codec ID : tx3g
Duration : 1 h 44 min
Bit rate mode : Variable
Bit rate : 54 b/s
Frame rate : 0.346 FPS
Stream size : 41.5 KiB (0%)
Title : Polish
Language : Polish
Forced : No
Encoded date : UTC 2022-09-08 07:58:15
Tagged date : UTC 2022-09-08 07:58:16

Text #19
ID : 21
Format : Timed Text
Codec ID : tx3g
Duration : 1 h 44 min
Bit rate mode : Variable
Bit rate : 64 b/s
Frame rate : 0.347 FPS
Stream size : 49.2 KiB (0%)
Title : Portuguese
Language : Portuguese
Forced : No
Encoded date : UTC 2022-09-08 07:58:15
Tagged date : UTC 2022-09-08 07:58:16

Text #20
ID : 22
Format : Timed Text
Codec ID : tx3g
Duration : 1 h 44 min
Bit rate mode : Variable
Bit rate : 63 b/s
Frame rate : 0.347 FPS
Stream size : 48.5 KiB (0%)
Title : Portuguese
Language : Portuguese
Forced : No
Encoded date : UTC 2022-09-08 07:58:15
Tagged date : UTC 2022-09-08 07:58:16

Text #21
ID : 23
Format : Timed Text
Codec ID : tx3g
Duration : 1 h 44 min
Bit rate mode : Variable
Bit rate : 65 b/s
Frame rate : 0.345 FPS
Stream size : 50.0 KiB (0%)
Title : Romanian
Language : Romanian
Forced : No
Encoded date : UTC 2022-09-08 07:58:15
Tagged date : UTC 2022-09-08 07:58:16

Text #22
ID : 24
Format : Timed Text
Codec ID : tx3g
Duration : 1 h 44 min
Bit rate mode : Variable
Bit rate : 60 b/s
Frame rate : 0.347 FPS
Stream size : 46.3 KiB (0%)
Title : Slovak
Language : Slovak
Forced : No
Encoded date : UTC 2022-09-08 07:58:15
Tagged date : UTC 2022-09-08 07:58:16

Text #23
ID : 25
Format : Timed Text
Codec ID : tx3g
Duration : 1 h 44 min
Bit rate mode : Variable
Bit rate : 62 b/s
Frame rate : 0.349 FPS
Stream size : 47.9 KiB (0%)
Title : Spanish-EU
Language : Spanish
Forced : No
Encoded date : UTC 2022-09-08 07:58:15
Tagged date : UTC 2022-09-08 07:58:16

Text #24
ID : 26
Format : Timed Text
Codec ID : tx3g
Duration : 1 h 44 min
Bit rate mode : Variable
Bit rate : 60 b/s
Frame rate : 0.347 FPS
Stream size : 46.4 KiB (0%)
Title : Spanish-EU
Language : Spanish
Forced : No
Encoded date : UTC 2022-09-08 07:58:15
Tagged date : UTC 2022-09-08 07:58:16

Text #25
ID : 27
Format : Timed Text
Codec ID : tx3g
Duration : 1 h 44 min
Bit rate mode : Variable
Bit rate : 55 b/s
Frame rate : 0.343 FPS
Stream size : 42.5 KiB (0%)
Title : Swedish
Language : Swedish
Forced : No
Encoded date : UTC 2022-09-08 07:58:16
Tagged date : UTC 2022-09-08 07:58:16

Text #26
ID : 28
Format : Timed Text
Codec ID : tx3g
Duration : 1 h 44 min
Bit rate mode : Variable
Bit rate : 62 b/s
Frame rate : 0.346 FPS
Stream size : 47.3 KiB (0%)
Title : Turkish
Language : Turkish
Forced : No
Encoded date : UTC 2022-09-08 07:58:16
Tagged date : UTC 2022-09-08 07:58:16


资源速度为零或资源敏感被和谐时,推荐使用qBittorrent等下载软件,有条件的推荐115更好的下载软件!

下载地址:


游客,如果您要查看本帖隐藏内容请回复

游客,如果您要查看本帖隐藏内容请回复

游客,如果您要查看本帖隐藏内容请回复





上一篇:欧比旺:绝地归来[简繁粤中字] (2022) 4K高清版本下载
下一篇:BTS舞台舞蹈许可:首尔实时观看[简繁粤](2022)4K高清版本下载
回复

使用道具 举报

55

主题

1541

帖子

4455

积分

4K家园VIP

Rank: 9Rank: 9Rank: 9

积分
4455
发表于 2022-9-8 19:50:11 | 显示全部楼层
众里寻他千百度,蓦然回首在这里!
回复 支持 反对

使用道具 举报

0

主题

8663

帖子

2万

积分

4K家园VIP

Rank: 9Rank: 9Rank: 9

积分
20189
发表于 2022-9-8 20:09:13 | 显示全部楼层
太好啦&萬分感謝版主的無私發佈分享%
回复 支持 反对

使用道具 举报

0

主题

7

帖子

39

积分

新手上路

Rank: 1

积分
39
发表于 2022-9-8 20:30:36 | 显示全部楼层
不错,很好看,谢谢
回复 支持 反对

使用道具 举报

0

主题

138

帖子

773

积分

4K家园VIP

Rank: 9Rank: 9Rank: 9

积分
773
发表于 2022-9-9 12:59:38 | 显示全部楼层
楼主辛苦了,谢谢楼主,感谢楼主分享,楼主好人一生平安!!!
回复 支持 反对

使用道具 举报

0

主题

15

帖子

91

积分

新手上路

Rank: 1

积分
91
发表于 2022-9-10 09:34:55 | 显示全部楼层
谢谢.......................
回复

使用道具 举报

3

主题

1346

帖子

4064

积分

4K家园VIP

Rank: 9Rank: 9Rank: 9

积分
4064
发表于 2022-9-10 15:02:28 | 显示全部楼层
支持一下楼主,顶起来
回复 支持 反对

使用道具 举报

53

主题

1549

帖子

4487

积分

4K家园VIP

Rank: 9Rank: 9Rank: 9

积分
4487
发表于 2022-9-17 17:19:16 | 显示全部楼层
垃圾内容,路过为证。
回复 支持 反对

使用道具 举报

0

主题

3

帖子

12

积分

新手上路

Rank: 1

积分
12
发表于 2022-9-22 22:36:48 | 显示全部楼层
感谢楼主分享,非常感谢
回复 支持 反对

使用道具 举报

26

主题

1295

帖子

3899

积分

4K家园VIP

Rank: 9Rank: 9Rank: 9

积分
3899
发表于 2022-9-25 06:13:47 来自手机 | 显示全部楼层
看帖要回,回帖才健康,在踩踩,楼主辛苦了!
回复 支持 反对

使用道具 举报

您需要登录后才可以回帖 登录 | 立即注册

本版积分规则

精彩图文
Archiver|手机版|TAG|Sitemap|新帖|专题|联系我们:邮箱: 4kjia.com@gmail.com   

4k家园   ©2019