[4K UHD 蓝光原盘] 恐怖欢乐屋 / The Funhouse (1981) 4K蓝光[原盘+REMUX]版本下载

[复制链接]

1914

主题

2003

帖子

2万

积分

超级版主

Rank: 8Rank: 8

积分
20445
 楼主| 发表于 2022-9-8 20:49:55 | 显示全部楼层 |阅读模式
本帖最后由 没完没了 于 2022-10-1 19:19 编辑

QQ图片20220908204018_副本.png

标  题 恐怖欢乐屋
◎片  名 The Funhouse
◎年  代 1981
◎产  地 美国
◎类  别 恐怖
◎语  言 英语
◎上映日期 1981-03-13
◎IMDb评分 5.9/10 (13652人评价)
◎IMDb链接 https://www.imdb.com/title/tt0082427/
◎豆瓣评分 6.0/10 (695人评价)
◎豆瓣链接 https://movie.douban.com/subject/1999081/
◎片  长 96 分钟
◎导  演 托比·霍珀 Tobe Hooper
◎编  剧 劳伦斯·J·布洛克 Lawrence J. Block
◎演  员 伊丽莎白·贝里奇 Elizabeth Berridge
       库珀·哈克卡比 Cooper Huckabee
       凯文·康韦 Kevin Conway
       西尔维娅·迈尔斯 Sylvia Miles
       索尼娅·佐米娜 Sonia Zomina
       希德·雷蒙德 Sid Raymond
       肖恩·麦卡利斯特 Shawn McAllister
       威廉姆·菲利 William Finley
       韦恩·多巴 Wayne Doba
       麦尔斯·查宾 Miles Chapin
       马克·L·莱斯特 Mark L. Lester
       梅斯·纽菲尔德 Mace Neufeld
       史蒂文·伯恩哈特 Steven Bernhardt
       约翰·比尔 John Beal
       安德鲁·拉兹洛 Andrew Laszlo
       帕梅拉·巴斯克 Pamela Basker
       Fern Champion Fern Champion
       里克·贝克 Rick Baker
       克雷格·里尔登 Craig Reardon


◎简  介


  热闹的嘉年华来到平静沉闷的小镇,两对青年男女:艾米•哈勃(Elizabeth Berridge 饰)、巴兹•克莱蒙特(Cooper Huckabee 饰)、里奇•艾特伯雷(Miles Chapin 饰)和莉兹•杜肯(Largo Woodruff 饰)结伴前来玩耍。长夜将尽,年轻人兴致盎然,不愿离去。莉兹提议彻夜留在欢乐屋内,得到众人一致同意。
然而他们却在这里看见一个身材巨大、戴着科学怪人面具的恐怖杀手(Wayne Doba 饰)。随后他们更惹怒了欢乐屋的主人,一场针对这四个年轻人的杀戮旋即展开……

Video
ID : 1
Format : HEVC
Format/Info : High Efficiency Video Coding
Format profile : Main 10@L5.1@High
HDR format : SMPTE ST 2086, HDR10 compatible
Codec ID : V_MPEGH/ISO/HEVC
Duration : 1 h 35 min
Bit rate : 47.5 Mb/s
Width : 3 840 pixels
Height : 1 600 pixels
Display aspect ratio : 2.40:1
Frame rate mode : Constant
Frame rate : 23.976 (24000/1001) FPS
Color space : YUV
Chroma subsampling : 4:2:0 (Type 2)
Bit depth : 10 bits
Bits/(Pixel*Frame) : 0.322
Stream size : 31.5 GiB (96%)
Writing library : x265 3.5+38-20255e6f0:[Windows][GCC 11.3.0][64 bit] 10bit
Encoding settings : cpuid=1176575 / frame-threads=5 / numa-pools=36 / wpp / no-pmode / no-pme / no-psnr / no-ssim / log-level=2 / input-csp=1 / input-res=3840x1600 / interlace=0 / total-frames=136787 / level-idc=51 / high-tier=1 / uhd-bd=0 / ref=4 / no-allow-non-conformance / repeat-headers / annexb / aud / no-eob / no-eos / hrd / info / hash=0 / no-temporal-layers / open-gop / min-keyint=23 / keyint=250 / gop-lookahead=0 / bframes=4 / b-adapt=2 / b-pyramid / bframe-bias=0 / rc-lookahead=25 / lookahead-slices=4 / scenecut=40 / no-hist-scenecut / radl=0 / no-splice / no-intra-refresh / ctu=64 / min-cu-size=8 / rect / no-amp / max-tu-size=32 / tu-inter-depth=1 / tu-intra-depth=1 / limit-tu=0 / rdoq-level=2 / dynamic-rd=0.00 / no-ssim-rd / signhide / no-tskip / nr-intra=0 / nr-inter=0 / no-constrained-intra / strong-intra-smoothing / max-merge=3 / limit-refs=3 / limit-modes / me=3 / subme=3 / merange=57 / temporal-mvp / no-frame-dup / no-hme / weightp / no-weightb / no-analyze-src-pics / deblock=-3:-3 / no-sao / no-sao-non-deblock / rd=4 / selective-sao=0 / no-early-skip / rskip / no-fast-intra / no-tskip-fast / no-cu-lossless / no-b-intra / no-splitrd-skip / rdpenalty=0 / psy-rd=2.00 / psy-rdoq=1.00 / no-rd-refine / no-lossless / cbqpoffs=0 / crqpoffs=0 / rc=crf / crf=16.0 / qcomp=0.60 / qpstep=4 / stats-write=0 / stats-read=0 / vbv-maxrate=160000 / vbv-bufsize=160000 / vbv-init=0.9 / min-vbv-fullness=50.0 / max-vbv-fullness=80.0 / crf-max=0.0 / crf-min=0.0 / ipratio=1.40 / pbratio=1.30 / aq-mode=2 / aq-strength=1.00 / cutree / zone-count=0 / no-strict-cbr / qg-size=32 / no-rc-grain / qpmax=69 / qpmin=0 / no-const-vbv / sar=1 / overscan=0 / videoformat=5 / range=0 / colorprim=9 / transfer=16 / colormatrix=9 / chromaloc=1 / chromaloc-top=2 / chromaloc-bottom=2 / display-window=0 / master-display=G(8500,39850)B(6550,2300)R(35400,14600)WP(15635,16450)L(10000000,1) / cll=0,0 / min-luma=0 / max-luma=1023 / log2-max-poc-lsb=8 / vui-timing-info / vui-hrd-info / slices=1 / no-opt-qp-pps / no-opt-ref-list-length-pps / no-multi-pass-opt-rps / scenecut-bias=0.05 / hist-threshold=0.03 / no-opt-cu-delta-qp / no-aq-motion / hdr10 / hdr10-opt / no-dhdr10-opt / no-idr-recovery-sei / analysis-reuse-level=0 / analysis-save-reuse-level=0 / analysis-load-reuse-level=0 / scale-factor=0 / refine-intra=0 / refine-inter=0 / refine-mv=1 / refine-ctu-distortion=0 / no-limit-sao / ctu-info=0 / no-lowpass-dct / refine-analysis-type=0 / copy-pic=1 / max-ausize-factor=1.0 / no-dynamic-refine / no-single-sei / no-hevc-aq / no-svt / no-field / qp-adaptation-range=1.00 / scenecut-aware-qp=0conformance-window-offsets / right=0 / bottom=0 / decoder-max-rate=0 / no-vbv-live-multi-pass
Default : Yes
Forced : No
Color range : Limited
Color primaries : BT.2020
Transfer characteristics : PQ
Matrix coefficients : BT.2020 non-constant
Mastering display color primaries : BT.2020
Mastering display luminance : min: 0.0001 cd/m2, max: 1000 cd/m2

Audio #1
ID : 2
Format : DTS XLL
Format/Info : Digital Theater Systems
Commercial name : DTS-HD Master Audio
Codec ID : A_DTS
Duration : 1 h 35 min
Bit rate mode : Variable
Bit rate : 1 960 kb/s
Channel(s) : 6 channels
Channel layout : C L R Ls Rs LFE
Sampling rate : 48.0 kHz
Frame rate : 93.750 FPS (512 SPF)
Bit depth : 24 bits
Compression mode : Lossless
Stream size : 1.30 GiB (4%)
Language : English
Default : Yes
Forced : No

Audio #2
ID : 3
Format : AAC LC
Format/Info : Advanced Audio Codec Low Complexity
Codec ID : A_AAC-2
Duration : 1 h 35 min
Bit rate : 103 kb/s
Channel(s) : 2 channels
Channel layout : L R
Sampling rate : 48.0 kHz
Frame rate : 46.875 FPS (1024 SPF)
Compression mode : Lossy
Delay relative to video : 9 ms
Stream size : 70.4 MiB (0%)
Title : English Commentary
Language : English
Default : No
Forced : No

Text
ID : 4
Format : PGS
Muxing mode : zlib
Codec ID : S_HDMV/PGS
Codec ID/Info : Picture based subtitle format used on BDs/HD-DVDs
Duration : 1 h 29 min
Bit rate : 25.4 kb/s
Frame rate : 0.392 FPS
Count of elements : 2114
Stream size : 16.3 MiB (0%)
Title : English SDH
Language : English
Default : No
Forced : No

Menu
00:00:00.000 : en:Chapter 01
00:14:05.845 : en:Chapter 02
00:22:55.374 : en:Chapter 03
00:31:10.869 : en:Chapter 04
00:39:00.338 : en:Chapter 05
00:49:12.950 : en:Chapter 06
00:53:57.234 : en:Chapter 07
01:01:24.681 : en:Chapter 08
01:11:32.288 : en:Chapter 09
01:17:19.635 : en:Chapter 10
01:31:38.493 : en:Chapter 11

新种推荐使用qBittorrent、uTorrent等下载软件,有条件的推荐115更好的下载软件!

恐怖欢乐屋(56.12GB)The.Funhouse.1981.2160p.BluRay.HEVC.DTS-HD.MA.5.1-B0MBARDiERS-【2160P蓝光原盘
游客,如果您要查看本帖隐藏内容请回复

恐怖欢乐屋(52.94GB)The.Funhouse.1981.2160p.BluRay.REMUX.HEVC.DTS-HD.MA.5.1-FGT-【2160P蓝光REMUX】
游客,如果您要查看本帖隐藏内容请回复

恐怖欢乐屋(50.41GB)The.Funhouse.1981.2160p.BluRay.x264.8bit.SDR.DTS-HD.MA.5.1-SWTYBLZ
游客,如果您要查看本帖隐藏内容请回复

恐怖欢乐屋(44.03GB)The.Funhouse.1981.2160p.BluRay.x265.10bit.SDR.DTS-HD.MA.5.1-SWTYBLZ
游客,如果您要查看本帖隐藏内容请回复

恐怖欢乐屋(33.36GB)The.Funhouse.1981.2160p.UHD.BluRay.x265.10bit.HDR.DTS-HD.MA.5.1-B0MBARDiERS
游客,如果您要查看本帖隐藏内容请回复

恐怖欢乐屋(6.89GB)The.Funhouse.1981.2160p.UHD.BluRay.x265.10bit.HDR.DTS-HD.MA.5.1-RARBG
游客,如果您要查看本帖隐藏内容请回复

恐怖欢乐屋(5.76GB)The.Funhouse.1981.2160p.UHD.BluRay.x265.10bit.HDR.DDP5.1-RARBG-[rarbg.to]
游客,如果您要查看本帖隐藏内容请回复


QQ4K海报.gif



上一篇:星际旅行5:终极先锋 (1989) 4K蓝光[原盘+REMUX]版本下载
下一篇:野战排 / Platoon (1986) 4K蓝光[原盘+REMUX]版本下载
回复

使用道具 举报

1

主题

1221

帖子

3685

积分

4K家园VIP

Rank: 9Rank: 9Rank: 9

积分
3685
发表于 2022-9-8 20:49:58 | 显示全部楼层
多发些资源啊
回复 支持 反对

使用道具 举报

0

主题

8663

帖子

2万

积分

4K家园VIP

Rank: 9Rank: 9Rank: 9

积分
20189
发表于 2022-9-9 00:35:07 | 显示全部楼层
太好啦&萬分感謝版主的無私發佈分享%
回复 支持 反对

使用道具 举报

1

主题

1280

帖子

3858

积分

4K家园VIP

Rank: 9Rank: 9Rank: 9

积分
3858
发表于 2022-9-9 03:05:07 | 显示全部楼层
4K家园资源最近貌似越来越多了
回复 支持 反对

使用道具 举报

0

主题

475

帖子

2895

积分

注册会员

Rank: 2

积分
2895
发表于 2022-9-9 11:50:38 | 显示全部楼层
谢谢楼主分享
回复 支持 反对

使用道具 举报

1

主题

1290

帖子

3888

积分

4K家园VIP

Rank: 9Rank: 9Rank: 9

积分
3888
发表于 2022-9-10 00:48:57 来自手机 | 显示全部楼层
多发些资源啊
回复 支持 反对

使用道具 举报

1

主题

1434

帖子

4158

积分

4K家园VIP

Rank: 9Rank: 9Rank: 9

积分
4158
发表于 2022-9-10 12:37:02 来自手机 | 显示全部楼层
感谢分享
回复 支持 反对

使用道具 举报

51

主题

1526

帖子

4398

积分

4K家园VIP

Rank: 9Rank: 9Rank: 9

积分
4398
发表于 2022-9-10 22:59:48 | 显示全部楼层
楼主这资源不错,我收藏了
回复 支持 反对

使用道具 举报

0

主题

475

帖子

2895

积分

注册会员

Rank: 2

积分
2895
发表于 2022-9-11 11:26:29 | 显示全部楼层
感謝版主的無私發佈分享
回复 支持 反对

使用道具 举报

您需要登录后才可以回帖 登录 | 立即注册

本版积分规则

精彩图文
Archiver|手机版|TAG|Sitemap|新帖|专题|联系我们:邮箱: 4kjia.com@gmail.com   

4k家园   ©2019