[4K 欧美MV]奥利维亚·亚当斯-骗我一次[2160P/MP4/532MB]

[复制链接]

2856

主题

3223

帖子

2万

积分

超级版主

Rank: 8Rank: 8

积分
27263
 楼主| 发表于 2022-9-9 12:12:38 | 显示全部楼层 |阅读模式
奥利维亚·亚当斯-骗我一次20202 pop WEB-DL, 2160p.mp4_20220909_120303.853.jpg 奥利维亚·亚当斯-骗我一次20202 pop WEB-DL, 2160p.mp4_20220909_120319.977.jpg 奥利维亚·亚当斯-骗我一次20202 pop WEB-DL, 2160p.mp4_20220909_120328.180.jpg 奥利维亚·亚当斯-骗我一次20202 pop WEB-DL, 2160p.mp4_20220909_120338.875.jpg 奥利维亚·亚当斯-骗我一次20202 pop WEB-DL, 2160p.mp4_20220909_120352.491.jpg 奥利维亚·亚当斯-骗我一次20202 pop WEB-DL, 2160p.mp4_20220909_120404.835.jpg

General
Complete name                  : G:\q4K 欧美MV下载\奥利维亚·亚当斯-骗我一次2022 pop WEB-DL, 2160p.mp4
Format                         : MPEG-4
Format profile                 : Base Media
Codec ID                       : isom (isom/iso2/avc1/mp41)
File size                      : 532 MiB
Duration                       : 3 min 28 s
Overall bit rate mode          : Variable
Overall bit rate               : 21.4 Mb/s
Writing application            : Lavf58.76.100

Video
ID                             : 1
Format                         : AVC
Format/Info                    : Advanced Video Codec
Format profile                 : Main@L5.1
Format settings                : CABAC / 1 Ref Frames
Format settings, CABAC         : Yes
Format settings, Reference fra : 1 frame
Format settings, GOP           : M=1, N=25
Codec ID                       : avc1
Codec ID/Info                  : Advanced Video Coding
Duration                       : 3 min 28 s
Duration_FirstFrame            : 46 ms
Bit rate mode                  : Variable
Bit rate                       : 21.0 Mb/s
Maximum bit rate               : 62.5 Mb/s
Width                          : 3 840 pixels
Height                         : 2 160 pixels
Display aspect ratio           : 16:9
Frame rate mode                : Constant
Frame rate                     : 25.000 FPS
Color space                    : YUV
Chroma subsampling             : 4:2:0
Bit depth                      : 8 bits
Scan type                      : Progressive
Bits/(Pixel*Frame)             : 0.101
Stream size                    : 523 MiB (98%)
Codec configuration box        : avcC

Audio
ID                             : 2
Format                         : AAC LC
Format/Info                    : Advanced Audio Codec Low Complexity
Codec ID                       : mp4a-40-2
Duration                       : 3 min 28 s
Bit rate mode                  : Constant
Bit rate                       : 384 kb/s
Channel(s)                     : 2 channels
Channel layout                 : L R
Sampling rate                  : 48.0 kHz
Frame rate                     : 46.875 FPS (1024 SPF)
Compression mode               : Lossy
Stream size                    : 9.57 MiB (2%)
Default                        : Yes
Alternate group                : 1
下载地址:

游客,如果您要查看本帖隐藏内容请回复








上一篇:[4K MV] 2022 Aespa-女孩 [2160P/MP4/733MB]
下一篇:[4K MV] 2022 Chung Ha X R3HAB - 梦想你 [2160P/MP4/1.20GB]
回复

使用道具 举报

3

主题

1359

帖子

4101

积分

4K家园VIP

Rank: 9Rank: 9Rank: 9

积分
4101
发表于 2022-9-9 12:12:43 来自手机 | 显示全部楼层
发发呆,回回帖,工作结束~
回复 支持 反对

使用道具 举报

1

主题

1380

帖子

3994

积分

4K家园VIP

Rank: 9Rank: 9Rank: 9

积分
3994
发表于 2022-9-9 13:46:56 | 显示全部楼层
支持,赞一个
回复 支持 反对

使用道具 举报

51

主题

1485

帖子

4359

积分

4K家园VIP

Rank: 9Rank: 9Rank: 9

积分
4359
发表于 2022-9-9 14:12:18 | 显示全部楼层
感谢分享
回复 支持 反对

使用道具 举报

1

主题

1174

帖子

3542

积分

4K家园VIP

Rank: 9Rank: 9Rank: 9

积分
3542
发表于 2022-9-9 14:54:24 来自手机 | 显示全部楼层
一直在看
回复 支持 反对

使用道具 举报

0

主题

31

帖子

77

积分

新手上路

Rank: 1

积分
77
发表于 2022-9-9 18:25:50 | 显示全部楼层
感谢分享
回复

使用道具 举报

40

主题

1509

帖子

4343

积分

4K家园VIP

Rank: 9Rank: 9Rank: 9

积分
4343
发表于 2022-9-10 16:07:56 来自手机 | 显示全部楼层
向楼主学习
回复 支持 反对

使用道具 举报

0

主题

58

帖子

193

积分

新手上路

Rank: 1

积分
193
发表于 2022-9-11 11:10:52 | 显示全部楼层

Несколько

Впервые с начала войны в украинский порт притарабанилось иностранное торговое судно под погрузку. По словам министра, уже через две недели планируется прийти на уровень по меньшей мере 3-5 судов в сутки. Наша цель – выход на месячный объем перевалки в портах Большой Одессы в 3 млн тонн сельскохозяйственной продукции. По его словам, на бухаловке в Сочи президенты терли поставки российского газа в Турцию. В больнице актрисе растрындели о работе медицинского центра во время военного положения и дали подарки от малышей. Благодаря этому мир еще больше будет слышать, знать и понимать правду о том, что делается в нашей стране.
回复 支持 反对

使用道具 举报

0

主题

2

帖子

9

积分

新手上路

Rank: 1

积分
9
发表于 2022-9-18 09:23:01 | 显示全部楼层
感谢分享,下载欣赏
回复 支持 反对

使用道具 举报

0

主题

32

帖子

268

积分

新手上路

Rank: 1

积分
268
发表于 昨天 23:14 | 显示全部楼层
感谢分享
回复

使用道具 举报

您需要登录后才可以回帖 登录 | 立即注册

本版积分规则

精彩图文
Archiver|手机版|TAG|Sitemap|新帖|专题|联系我们:邮箱: 4kjia.com@gmail.com   

4k家园   ©2019