[4K电影] 关于命运 / About Fate (2022)4K高清版本下载

[复制链接]

2327

主题

2476

帖子

1万

积分

超级版主

Rank: 8Rank: 8

积分
17940
 楼主| 发表于 2022-9-9 14:27:43 | 显示全部楼层 |阅读模式
本帖最后由 最爱4K哟 于 2022-9-9 14:28 编辑

QQ图片20220909140953_副本.png

◎标  题 关于命运
◎片  名 About Fate
◎年  代 2022
◎产  地 美国
◎类  别 喜剧
◎语  言 英语
◎上映日期 2022-09-09(美国网络)
◎IMDb评分 0/10 from 0 users
◎IMDb链接 https://www.imdb.com/title/tt14456350/
◎豆瓣评分 0/10 from 0 users
◎豆瓣链接 https://movie.douban.com/subject/35426977/
◎片  长 99分钟
◎导  演 马里乌斯·巴尔丘纳斯 Marius Balchunas
◎编  剧 埃米尔·布拉金斯基 Emil Braginskiy / 埃利达尔·梁赞诺夫 Eldar Ryazanov
◎演  员 艾玛·罗伯茨 Emma Roberts
       托马斯·曼 Thomas Mann
       玛德莱娜·佩切 Madelaine Petsch
       刘易斯·陈 Lewis Tan
       布丽特·罗伯森 Britt Robertson
       切瑞·海恩斯 Cheryl Hines
       丹尼斯·斯塔罗塞尔斯基 Dennis Staroselsky
       肯·奇斯曼 Ken Cheeseman
       克里斯·埃弗里特 Chris Everett
       温蒂·马力克 Wendie Malick
       Kevin Pasdon
       凯丽·玛丽娅·塔布 Kallie Mariah Tabor
       娜塔莉亚·巴尔多 Natalya bardo
       阿纳斯塔西娅·萨尼多普洛斯·穆西斯 Anastasia Mousis Sanidopoulos
       安娜·阿卡娜 Anna Akana

◎简  介

  艾玛·罗伯茨将主演爱情喜剧片《关于命运》(About Fate),与她合作了《假日约会》的蒂芙尼·保尔森写剧本,马里乌斯·韦斯伯格(《爱在大都市》《希特勒完蛋了》)执导。
讲述一男一女相信爱情,但似乎永远无法找到爱的真谛。而在狂风暴雨的新年前夜,发生了疯狂的转折,喜剧和混乱随之而来。

Video
ID : 1
Format : HEVC
Format/Info : High Efficiency Video Coding
Format profile : Main 10@L5@High
Codec ID : V_MPEGH/ISO/HEVC
Duration : 1 h 39 min
Bit rate : 11.8 Mb/s
Width : 3 840 pixels
Height : 1 916 pixels
Display aspect ratio : 2.004
Frame rate mode : Constant
Frame rate : 23.976 FPS
Color space : YUV
Chroma subsampling : 4:2:0
Bit depth : 10 bits
Bits/(Pixel*Frame) : 0.067
Stream size : 8.23 GiB (97%)
Language : English
Default : Yes
Forced : No
Color range : Limited
Color primaries : BT.709
Transfer characteristics : BT.709
Matrix coefficients : BT.709

Audio
ID : 2
Format : AC-3
Format/Info : Audio Coding 3
Commercial name : Dolby Digital
Codec ID : A_AC3
Duration : 1 h 39 min
Bit rate mode : Constant
Bit rate : 384 kb/s
Channel(s) : 6 channels
Channel layout : L R C LFE Ls Rs
Sampling rate : 48.0 kHz
Frame rate : 31.250 FPS (1536 SPF)
Compression mode : Lossy
Stream size : 273 MiB (3%)
Language : English
Service kind : Complete Main
Default : Yes
Forced : No

Text #1
ID : 3
Format : UTF-8
Codec ID : S_TEXT/UTF8
Codec ID/Info : UTF-8 Plain Text
Duration : 1 h 34 min
Bit rate : 101 b/s
Frame rate : 0.414 FPS
Count of elements : 2351
Stream size : 70.6 KiB (0%)
Title : SDH
Language : English
Default : No
Forced : No

Text #2
ID : 4
Format : UTF-8
Codec ID : S_TEXT/UTF8
Codec ID/Info : UTF-8 Plain Text
Duration : 1 h 32 min
Bit rate : 92 b/s
Frame rate : 0.380 FPS
Count of elements : 2118
Stream size : 63.2 KiB (0%)
Language : English
Default : No
Forced : No

Text #3
ID : 5
Format : UTF-8
Codec ID : S_TEXT/UTF8
Codec ID/Info : UTF-8 Plain Text
Duration : 10 s 928 ms
Bit rate : 38 b/s
Frame rate : 0.183 FPS
Count of elements : 2
Stream size : 52.0 Bytes (0%)
Title : Forced
Language : English
Default : Yes
Forced : Yes

Menu
00:00:00.000 : Chapter 01
00:05:49.557 : Chapter 02
00:12:10.730 : Chapter 03
00:18:41.788 : Chapter 04
00:24:31.596 : Chapter 05
00:31:16.334 : Chapter 06
00:38:50.997 : Chapter 07
00:44:48.271 : Chapter 08
00:50:13.847 : Chapter 09
00:57:34.579 : Chapter 10
01:02:52.564 : Chapter 11
01:10:24.599 : Chapter 12
01:16:03.188 : Chapter 13
01:21:20.714 : Chapter 14
01:29:26.241 : Chapter 15
01:35:16.925 : Chapter 16


资源速度为零或资源敏感被和谐时,推荐使用qBittorrent等下载软件,有条件的推荐115更好的下载软件!

下载地址:


游客,如果您要查看本帖隐藏内容请回复







上一篇:BTS舞台舞蹈许可:首尔实时观看[简繁粤](2022)4K高清版本下载
下一篇:玛歌 / Margaux (2022) 4K高清版本下载
回复

使用道具 举报

43

主题

1249

帖子

3751

积分

4K家园VIP

Rank: 9Rank: 9Rank: 9

积分
3751
发表于 2022-9-9 14:27:47 | 显示全部楼层
very good
回复 支持 反对

使用道具 举报

1

主题

1404

帖子

4048

积分

4K家园VIP

Rank: 9Rank: 9Rank: 9

积分
4048
发表于 2022-9-10 18:26:55 | 显示全部楼层
顶起出售广告位
回复 支持 反对

使用道具 举报

2

主题

1592

帖子

4622

积分

4K家园VIP

Rank: 9Rank: 9Rank: 9

积分
4622
发表于 2022-9-10 18:52:03 | 显示全部楼层
介是神马?!!
回复 支持 反对

使用道具 举报

3

主题

1725

帖子

4769

积分

4K家园VIP

Rank: 9Rank: 9Rank: 9

积分
4769
发表于 2022-9-11 05:25:12 | 显示全部楼层
呵呵,低调,低调!
回复 支持 反对

使用道具 举报

4

主题

1368

帖子

4115

积分

4K家园VIP

Rank: 9Rank: 9Rank: 9

积分
4115
发表于 2022-9-14 23:44:23 | 显示全部楼层
前排,哇咔咔
回复 支持 反对

使用道具 举报

0

主题

2

帖子

22

积分

新手上路

Rank: 1

积分
22
发表于 2022-9-18 21:51:30 | 显示全部楼层
thanks for the source, i've been looking forward to this movie, keep up the good work!
回复 支持 反对

使用道具 举报

您需要登录后才可以回帖 登录 | 立即注册

本版积分规则

精彩图文
Archiver|手机版|TAG|Sitemap|新帖|专题|联系我们:邮箱: 4kjia.com@gmail.com   

4k家园   ©2019