[4K电影] 玛歌 / Margaux (2022) 4K高清版本下载

[复制链接]

2327

主题

2476

帖子

1万

积分

超级版主

Rank: 8Rank: 8

积分
17940
 楼主| 发表于 2022-9-9 14:48:55 | 显示全部楼层 |阅读模式
QQ图片20220909141047_副本.png

◎标  题 玛歌 / 人工智能杀人屋
◎片  名 Margaux
◎年  代 2022
◎产  地 美国
◎类  别 惊悚 / 恐怖 / 犯罪
◎语  言 英语
◎上映日期 2022-09-09(美国网络)
◎IMDb评分 0/10 from 0 users
◎IMDb链接 https://www.imdb.com/title/tt14967618/
◎豆瓣评分 0/10 from 0 users
◎豆瓣链接 https://movie.douban.com/subject/36032840/
◎片  长 104分钟
◎导  演 史蒂芬·C·米勒 Steven C. Miller
◎编  剧 克里斯·贝洛迪 Chris Beyrooty / 克里斯·赛弗森 Chris Sivertson / 尼克·沃特斯 Nick Waters
◎演  员 理查德·哈蒙 Richard Harmon
                    洛奇林·莫罗 Lochlyn Munro
                    麦迪森·佩蒂丝 Madison Pettis
                    杰迪代亚·古达克 Jedidiah Goodacre
                    瓦妮莎·摩根 Vanessa Morgan
                    米菲·比 Phoebe Miu
                    布列塔尼·米切尔 Brittany Mitchell
                    乔丹·布哈特 Jordan Buhat
                    路易斯·雷 Louis Lay




◎简  介


          一群大学朋友租了一间智能房子,周末聚会。后来,他们开始意识到玛歌,这家超级先进的人工智能系统,为他们设计了邪恶的设计。
Video
ID : 1
Format : HEVC
Format/Info : High Efficiency Video Coding
Format profile : Main 10@L5@High
Codec ID : V_MPEGH/ISO/HEVC
Duration : 1 h 44 min
Bit rate : 12.0 Mb/s
Width : 3 838 pixels
Height : 1 604 pixels
Display aspect ratio : 2.40:1
Frame rate mode : Constant
Frame rate : 23.976 FPS
Color space : YUV
Chroma subsampling : 4:2:0
Bit depth : 10 bits
Bits/(Pixel*Frame) : 0.081
Stream size : 8.70 GiB (97%)
Language : English
Default : Yes
Forced : No
Color range : Limited
Color primaries : BT.709
Transfer characteristics : BT.709
Matrix coefficients : BT.709

Audio
ID : 2
Format : AC-3
Format/Info : Audio Coding 3
Commercial name : Dolby Digital
Codec ID : A_AC3
Duration : 1 h 44 min
Bit rate mode : Constant
Bit rate : 384 kb/s
Channel(s) : 6 channels
Channel layout : L R C LFE Ls Rs
Sampling rate : 48.0 kHz
Frame rate : 31.250 FPS (1536 SPF)
Compression mode : Lossy
Stream size : 286 MiB (3%)
Language : English
Service kind : Complete Main
Default : Yes
Forced : No

Text #1
ID : 3
Format : UTF-8
Codec ID : S_TEXT/UTF8
Codec ID/Info : UTF-8 Plain Text
Duration : 1 h 41 min
Bit rate : 68 b/s
Frame rate : 0.237 FPS
Count of elements : 1449
Stream size : 50.9 KiB (0%)
Title : SDH
Language : English
Default : No
Forced : No

Text #2
ID : 4
Format : UTF-8
Codec ID : S_TEXT/UTF8
Codec ID/Info : UTF-8 Plain Text
Duration : 1 h 41 min
Bit rate : 62 b/s
Frame rate : 0.216 FPS
Count of elements : 1308
Stream size : 46.6 KiB (0%)
Language : English
Default : No
Forced : No

Menu
00:00:00.000 : Chapter 01
00:09:19.601 : Chapter 02
00:19:55.236 : Chapter 03
00:30:05.096 : Chapter 04
00:37:39.426 : Chapter 05
00:45:36.403 : Chapter 06
00:53:50.855 : Chapter 07
01:04:44.592 : Chapter 08
01:14:31.304 : Chapter 09
01:24:57.514 : Chapter 10
01:31:59.227 : Chapter 11
01:38:50.513 : Chapter 12
资源速度为零或资源敏感被和谐时,推荐使用qBittorrent等下载软件,有条件的推荐115更好的下载软件!

下载地址:


游客,如果您要查看本帖隐藏内容请回复






上一篇:关于命运 / About Fate (2022)4K高清版本下载
下一篇:最终测试 / The Class (2022) 4K高清版本下载
回复

使用道具 举报

53

主题

1519

帖子

4427

积分

4K家园VIP

Rank: 9Rank: 9Rank: 9

积分
4427
发表于 2022-9-9 14:48:58 | 显示全部楼层
好,很好,非常好!
回复 支持 反对

使用道具 举报

0

主题

8663

帖子

2万

积分

4K家园VIP

Rank: 9Rank: 9Rank: 9

积分
20189
发表于 2022-9-9 15:41:40 | 显示全部楼层
太好啦&萬分感謝版主的無私發佈分享%
回复 支持 反对

使用道具 举报

0

主题

3

帖子

12

积分

新手上路

Rank: 1

积分
12
发表于 2022-9-10 11:37:14 | 显示全部楼层
好,很好,非常好!
回复 支持 反对

使用道具 举报

0

主题

1

帖子

6

积分

新手上路

Rank: 1

积分
6
发表于 2022-9-10 21:21:27 | 显示全部楼层
很好,多谢
回复

使用道具 举报

1

主题

1370

帖子

4138

积分

4K家园VIP

Rank: 9Rank: 9Rank: 9

积分
4138
发表于 2022-9-17 07:38:52 来自手机 | 显示全部楼层
求沙发
回复 支持 反对

使用道具 举报

0

主题

1

帖子

10

积分

新手上路

Rank: 1

积分
10
发表于 2022-9-17 15:00:34 | 显示全部楼层
xxlz 感谢up1!!
回复 支持 反对

使用道具 举报

0

主题

1

帖子

6

积分

新手上路

Rank: 1

积分
6
发表于 2022-9-18 18:09:32 | 显示全部楼层
感觉非常好看,下载来看看
回复 支持 反对

使用道具 举报

2

主题

1444

帖子

4170

积分

中级会员

Rank: 4

积分
4170
发表于 前天 21:53 | 显示全部楼层
我只是路过,不发表意见
回复 支持 反对

使用道具 举报

您需要登录后才可以回帖 登录 | 立即注册

本版积分规则

精彩图文
Archiver|手机版|TAG|Sitemap|新帖|专题|联系我们:邮箱: 4kjia.com@gmail.com   

4k家园   ©2019