[4K电影] 最终测试 / The Class (2022) 4K高清版本下载

[复制链接]

2327

主题

2476

帖子

1万

积分

超级版主

Rank: 8Rank: 8

积分
17940
 楼主| 发表于 2022-9-9 15:22:20 | 显示全部楼层 |阅读模式
本帖最后由 最爱4K哟 于 2022-9-9 15:27 编辑

QQ图片20220909150849_副本.png

◎标  题 最终测试
◎片  名 The Class
◎年  代 2022
◎产  地 美国
◎类  别 剧情
◎语  言 英语
◎上映日期 2022年9月9日(美国)
◎IMDb评分 0/10 from 0 users
◎IMDb链接 https://www.imdb.com/title/tt6276272/
◎豆瓣评分 0/10 from 0 users
◎豆瓣链接 https://movie.douban.com/subject/35712755/
◎导  演 尼古拉斯·塞洛齐 Nicholas Celozzi
◎编  剧 尼古拉斯·塞洛齐 Nicholas Celozzi
◎演  员 黛比·吉布森 Debbie Gibson
                   安东尼·迈克尔·豪尔 Anthony Michael Hall
       汉娜·凯普尔 Hannah Kepple
                   查理·吉莱斯皮 Charlie Gillespie
       约翰·卡普洛斯 John Kapelos
       利丽克·罗斯 Lyric Ross
                   迈克尔·塞巴斯蒂安 Michael Sebastian
                   科林·麦卡拉 Colin McCalla
                   朱丽叶·塞洛齐 Juliette Celozzi


◎简  介


  一部关于一群高中高年级学生被迫在学校度过一个周六完成一项考试,他们要么错过了考试,要么考试不及格。一天下来,他们在自己和同学身上找到了自己的价值观、背叛和爱。

Video
ID : 1
Format : HEVC
Format/Info : High Efficiency Video Coding
Format profile : Main 10@L5@High
Codec ID : V_MPEGH/ISO/HEVC
Duration : 1 h 54 min
Bit rate : 12.0 Mb/s
Width : 3 836 pixels
Height : 1 600 pixels
Display aspect ratio : 2.40:1
Original display aspect ratio : 2.40:1
Frame rate mode : Constant
Frame rate : 23.976 FPS
Color space : YUV
Chroma subsampling : 4:2:0
Bit depth : 10 bits
Bits/(Pixel*Frame) : 0.082
Stream size : 9.60 GiB (97%)
Language : English
Default : Yes
Forced : No
Color range : Limited
Color primaries : BT.709
Transfer characteristics : BT.709
Matrix coefficients : BT.709

Audio
ID : 2
Format : AC-3
Format/Info : Audio Coding 3
Commercial name : Dolby Digital
Codec ID : A_AC3
Duration : 1 h 54 min
Bit rate mode : Constant
Bit rate : 384 kb/s
Channel(s) : 6 channels
Channel layout : L R C LFE Ls Rs
Sampling rate : 48.0 kHz
Frame rate : 31.250 FPS (1536 SPF)
Compression mode : Lossy
Stream size : 314 MiB (3%)
Language : English
Service kind : Complete Main
Default : Yes
Forced : No

Text #1
ID : 3
Format : UTF-8
Codec ID : S_TEXT/UTF8
Codec ID/Info : UTF-8 Plain Text
Duration : 1 h 54 min
Bit rate : 92 b/s
Frame rate : 0.371 FPS
Count of elements : 2537
Stream size : 77.0 KiB (0%)
Title : SDH
Language : English
Default : No
Forced : No

Text #2
ID : 4
Format : UTF-8
Codec ID : S_TEXT/UTF8
Codec ID/Info : UTF-8 Plain Text
Duration : 1 h 53 min
Bit rate : 86 b/s
Frame rate : 0.361 FPS
Count of elements : 2467
Stream size : 72.2 KiB (0%)
Language : English
Default : No
Forced : No

Menu
00:00:00.000 : Chapter 01
00:20:19.000 : Chapter 02
00:41:24.000 : Chapter 03
01:00:01.000 : Chapter 04
01:30:33.000 : Chapter 05
01:50:57.000 : Chapter 06

资源速度为零或资源敏感被和谐时,推荐使用qBittorrent等下载软件,有条件的推荐115更好的下载软件!

下载地址:


游客,如果您要查看本帖隐藏内容请回复







上一篇:玛歌 / Margaux (2022) 4K高清版本下载
下一篇:破裂 / Breaking (2022) 4K高清版本下载
回复

使用道具 举报

1

主题

1373

帖子

4135

积分

4K家园VIP

Rank: 9Rank: 9Rank: 9

积分
4135
发表于 2022-9-9 15:22:29 | 显示全部楼层
传说中的沙发???哇卡卡
回复 支持 反对

使用道具 举报

0

主题

8663

帖子

2万

积分

4K家园VIP

Rank: 9Rank: 9Rank: 9

积分
20189
发表于 2022-9-9 15:41:17 | 显示全部楼层
太好啦&萬分感謝版主的無私發佈分享%
回复 支持 反对

使用道具 举报

0

主题

2

帖子

9

积分

新手上路

Rank: 1

积分
9
发表于 2022-9-9 17:10:47 | 显示全部楼层
谢谢分享
回复

使用道具 举报

0

主题

2

帖子

13

积分

新手上路

Rank: 1

积分
13
发表于 2022-9-9 18:19:13 | 显示全部楼层

谢谢分享
回复

使用道具 举报

2

主题

1168

帖子

3524

积分

4K家园VIP

Rank: 9Rank: 9Rank: 9

积分
3524
发表于 2022-9-11 15:07:12 | 显示全部楼层
前排,哇咔咔
回复 支持 反对

使用道具 举报

5

主题

1371

帖子

3969

积分

中级会员

Rank: 4

积分
3969
发表于 2022-9-12 01:35:30 来自手机 | 显示全部楼层
大人,此事必有蹊跷!
回复 支持 反对

使用道具 举报

0

主题

475

帖子

2895

积分

注册会员

Rank: 2

积分
2895
发表于 2022-9-12 11:28:19 | 显示全部楼层
谢谢分享
回复

使用道具 举报

2

主题

1486

帖子

4262

积分

4K家园VIP

Rank: 9Rank: 9Rank: 9

积分
4262
发表于 2022-9-18 03:29:27 | 显示全部楼层
顶起顶起顶起
回复 支持 反对

使用道具 举报

2

主题

1579

帖子

4309

积分

4K家园VIP

Rank: 9Rank: 9Rank: 9

积分
4309
发表于 2022-9-18 14:12:27 | 显示全部楼层
无论是不是沙发都得回复下
回复 支持 反对

使用道具 举报

您需要登录后才可以回帖 登录 | 立即注册

本版积分规则

精彩图文
Archiver|手机版|TAG|Sitemap|新帖|专题|联系我们:邮箱: 4kjia.com@gmail.com   

4k家园   ©2019