[4K UHD 蓝光原盘] [首发] 猫王 [DIY简繁&英文] / Elvis (2022) 4K蓝光REMUX版本下载

[复制链接]

主题

帖子

0

积分

超级版主

Rank: 8Rank: 8

积分
0
 楼主| 发表于 2022-9-9 19:44:12 | 显示全部楼层 |阅读模式
本帖最后由 没完没了 于 2022-9-9 20:42 编辑

QQ图片20220909173716_副本.png

◎译  名 猫王/埃尔维斯/猫王艾维斯(台)
◎片  名 Elvis
◎年  代 2022
◎产  地 澳大利亚/美国
◎类  别 剧情/音乐/传记
◎语  言 英语
◎上映日期 2022-05-25(戛纳电影节)/2022-06-24(美国)
◎IMDb评分 7.5/10 from 101871 users 更新 : 2022-09-08
◎IMDb链接 https://www.imdb.com/title/tt3704428/
◎豆瓣评分 7.4/10 from 5750 users 更新 : 2022-09-09
◎豆瓣链接 https://movie.douban.com/subject/26305582/
◎导  演 巴兹·鲁赫曼 Baz Luhrmann
◎编  剧 巴兹·鲁赫曼 Baz Luhrmann / 山姆·布罗梅尔 Sam Bromell / 克雷格·皮尔斯 Craig Pearce / 杰瑞米·杜内尔 Jeremy Doner
◎主  演 奥斯汀·巴特勒 Austin Butler
       汤姆·汉克斯 Tom Hanks
       奥利维亚·德容格 Olivia DeJonge
       海伦·汤姆森 Helen Thomson
       理查德·劳斯伯格 Richard Roxburgh
       小凯文·哈里森 Kelvin Harrison Jr.
       大卫·文翰 David Wenham
       柯蒂·斯密特-麦菲 Kodi Smit-McPhee
       卢克·布雷西 Luke Bracey
       戴克·蒙哥马利 Dacre Montgomery
       里昂·福德 Leon Ford
       加里·克拉克 Gary Clark Jr.
       约拉·约拉 Yola Yola
       娜塔莎·巴塞特 Natasha Bassett
       泽维尔·塞缪尔 Xavier Samuel
       亚当·杜恩 Adam Dunn
       查尔斯·格朗斯 Charles Grounds
       凯特·马尔瓦尼 Kate Mulvany
       加雷斯·戴维斯 Gareth Davies
       尼古拉斯·贝尔 Nicholas Bell
       安东尼·费伦 Anthony Phelan
       桑德罗·科拉尔利 Sandro Colarelli
       娜塔莉·巴辛思韦特 Natalie Bassingthwaighte
       马克·伦纳德·温特 Mark Leonard Winter
       休·帕克 Hugh Parker
       克里斯多夫·萨默斯 Christopher Sommers
       伊丽莎白·库伦 Elizabeth Cullen
       安琪·米利肯 Angie Milliken
       伊恩·加德纳 Iain Gardiner
       梅利纳·维德勒 Melina Vidler
       林恩·罗斯 Lynne Rose


◎简  介


  《红磨坊》《了不起的盖茨比》殿堂级导演巴兹·鲁赫曼掌舵,《好莱坞往事》新一代男神奥斯汀·巴特勒,联同奥斯卡影帝汤姆·汉克斯,将已故摇滚传奇天王“猫王”埃尔维斯·普雷斯利(Elvis Presley)的一生,震撼而感动地重现大银幕。
  籍籍无名乡村男孩,摇身一变成为叱咤风云的摇滚之王,猫王精彩一生,由他站上舞台那刻展开。猫王被经理人Tom Parker上校(汤姆·汉克斯 饰)发崛,助他走上国际巨星之路,但前所未有的名与利,加上社会与文化变迁,令猫王一度迷失自我,二人在20多年之间发展出一段充满矛盾的复杂关系。这段华丽星途里,猫王也遇上了影响他最深的女人Priscilla Presley(奥利维亚·德容格 饰)。多首经典金曲伴着慑人舞姿,歌迷影迷无不着迷。
General
Complete name                  : D:\电影\[4Kjia独享资源] 猫王 [DIY简繁&英文]Elvis.2022.2160p.BluRay.HEVC.HDR.Dolby Vision.DVP8.ALANG
Format                         : Matroska
Format version                 : Version 4
File size                      : 71.3 GiB
Duration                       : 2 h 39 min
Overall bit rate mode          : Variable
Overall bit rate               : 64.1 Mb/s
Movie name                     : Elvis 2022 from seleZen
Encoded date                   : UTC 2022-09-09 10:22:01
Writing application            : mkvmerge v68.0.0 ('The Curtain') 64-bit
Writing library                : libebml v1.4.2 + libmatroska v1.6.4

Video
ID                             : 1
ID in the original source medi : 4117 (0x1015)
Format                         : HEVC
Format/Info                    : High Efficiency Video Coding
Format profile                 : Main 10@L5.1@High
HDR format                     : Dolby Vision, Version 1.0, dvhe.08.06, BL+RPU, Blu-ray compatible / SMPTE ST 2094 App 4, Version 1, HDR10+ Profile B compatible
Codec ID                       : V_MPEGH/ISO/HEVC
Duration                       : 2 h 39 min
Bit rate                       : 60.6 Mb/s
Width                          : 3 840 pixels
Height                         : 2 160 pixels
Display aspect ratio           : 16:9
Frame rate mode                : Constant
Frame rate                     : 23.976 (24000/1001) FPS
Color space                    : YUV
Chroma subsampling             : 4:2:0 (Type 2)
Bit depth                      : 10 bits
Bits/(Pixel*Frame)             : 0.305
Stream size                    : 67.4 GiB (94%)
Language                       : English
Default                        : No
Forced                         : No
Color range                    : Limited
Color primaries                : BT.2020
Transfer characteristics       : PQ
Matrix coefficients            : BT.2020 non-constant
Mastering display color primar : Display P3
Mastering display luminance    : min: 0.0001 cd/m2, max: 1000 cd/m2
Maximum Content Light Level    : 429 cd/m2
Maximum Frame-Average Light Le : 116 cd/m2
Original source medium         : Blu-ray

Audio #1
ID                             : 2
Format                         : MLP FBA 16-ch
Format/Info                    : Meridian Lossless Packing FBA with 16-channel presentation
Commercial name                : Dolby TrueHD with Dolby Atmos
Codec ID                       : A_TRUEHD
Duration                       : 2 h 39 min
Bit rate mode                  : Variable
Bit rate                       : 3 021 kb/s
Maximum bit rate               : 4 668 kb/s
Channel(s)                     : 8 channels
Channel layout                 : L R C LFE Ls Rs Lb Rb
Sampling rate                  : 48.0 kHz
Frame rate                     : 1 200.000 FPS (40 SPF)
Compression mode               : Lossless
Stream size                    : 3.36 GiB (5%)
Title                          : Original
Language                       : English
Default                        : No
Forced                         : No
Number of dynamic objects      : 11
Bed channel count              : 1 channel
Bed channel configuration      : LFE

Audio #2
ID                             : 3
Format                         : AC-3
Format/Info                    : Audio Coding 3
Commercial name                : Dolby Digital
Codec ID                       : A_AC3
Duration                       : 2 h 39 min
Bit rate mode                  : Constant
Bit rate                       : 448 kb/s
Channel(s)                     : 6 channels
Channel layout                 : L R C LFE Ls Rs
Sampling rate                  : 48.0 kHz
Frame rate                     : 31.250 FPS (1536 SPF)
Compression mode               : Lossy
Stream size                    : 510 MiB (1%)
Language                       : English
Service kind                   : Complete Main
Default                        : No
Forced                         : No

Text #1
ID                             : 4
Format                         : UTF-8
Codec ID                       : S_TEXT/UTF8
Codec ID/Info                  : UTF-8 Plain Text
Duration                       : 2 h 39 min
Bit rate                       : 68 b/s
Frame rate                     : 0.266 FPS
Count of elements              : 2537
Stream size                    : 79.9 KiB (0%)
Title                          : Full
Language                       : English
Default                        : No
Forced                         : No

Text #2
ID                             : 5
Format                         : UTF-8
Codec ID                       : S_TEXT/UTF8
Codec ID/Info                  : UTF-8 Plain Text
Duration                       : 2 h 39 min
Bit rate                       : 78 b/s
Frame rate                     : 0.296 FPS
Count of elements              : 2827
Stream size                    : 91.2 KiB (0%)
Title                          : SDH
Language                       : English
Default                        : No
Forced                         : No

Text #3
ID                             : 6
Format                         : ASS
Codec ID                       : S_TEXT/ASS
Codec ID/Info                  : Advanced Sub Station Alpha
Duration                       : 2 h 39 min
Bit rate                       : 193 b/s
Frame rate                     : 0.234 FPS
Count of elements              : 2235
Compression mode               : Lossless
Stream size                    : 225 KiB (0%)
Title                          : 中文(简体)& 英文
Language                       : Chinese
Default                        : Yes
Forced                         : No

Text #4
ID                             : 7
Format                         : UTF-8
Codec ID                       : S_TEXT/UTF8
Codec ID/Info                  : UTF-8 Plain Text
Duration                       : 2 h 38 min
Bit rate                       : 57 b/s
Frame rate                     : 0.217 FPS
Count of elements              : 2067
Stream size                    : 66.6 KiB (0%)
Title                          : 中文(简体)
Language                       : Chinese
Default                        : Yes
Forced                         : No

Text #5
ID                             : 8
Format                         : UTF-8
Codec ID                       : S_TEXT/UTF8
Codec ID/Info                  : UTF-8 Plain Text
Duration                       : 2 h 38 min
Bit rate                       : 57 b/s
Frame rate                     : 0.217 FPS
Count of elements              : 2067
Stream size                    : 66.6 KiB (0%)
Title                          : 中文(繁体)
Language                       : Chinese
Default                        : Yes
Forced                         : No

新种推荐使用qBittorrent、uTorrent等下载软件,有条件的推荐115更好的下载软件!

[4Kjia独享资源] 猫王(71.32GB)[DIY简繁&英文]Elvis.2022.2160p.BluRay.HEVC.REMUX.HDR.Dolby Vision.DVP8.ALANG-【2160P蓝光REMUX】
游客,如果您要查看本帖隐藏内容请回复

游客,如果您要查看本帖隐藏内容请回复




QQ4K海报.gif

上一篇:野战排 / Platoon (1986) 4K蓝光[原盘+REMUX]版本下载
下一篇:致命诱惑 / Fatal Attraction (1987) 4K蓝光[原盘+REMUX]版本下载
回复

使用道具 举报

0

主题

1518

帖子

4368

积分

4K家园VIP

Rank: 9Rank: 9Rank: 9

积分
4368
发表于 2022-9-9 19:44:26 | 显示全部楼层
谢谢楼主
回复 支持 反对

使用道具 举报

主题

帖子

0

积分

4K家园VIP

Rank: 9Rank: 9Rank: 9

积分
0
发表于 2022-9-9 19:46:17 | 显示全部楼层
太好啦&萬分感謝版主的無私發佈分享%
回复 支持 反对

使用道具 举报

主题

帖子

13

积分

新手上路

Rank: 1

积分
13
发表于 2022-9-10 08:38:10 | 显示全部楼层
萬分感謝版主的無私發佈分享
回复 支持 反对

使用道具 举报

主题

帖子

0

积分

新手上路

Rank: 1

积分
0
发表于 2022-9-10 08:48:51 | 显示全部楼层
感謝版主的無私發佈
回复 支持 反对

使用道具 举报

主题

帖子

6

积分

新手上路

Rank: 1

积分
6
发表于 2022-9-10 14:39:20 | 显示全部楼层
感謝版主的無私分享
回复 支持 反对

使用道具 举报

主题

帖子

0

积分

4K家园VIP

Rank: 9Rank: 9Rank: 9

积分
0
发表于 2022-9-10 15:15:05 | 显示全部楼层
感謝版主的無私發佈分享
回复 支持 反对

使用道具 举报

58

主题

1610

帖子

4640

积分

4K家园VIP

Rank: 9Rank: 9Rank: 9

积分
4640
发表于 2022-9-10 23:10:10 | 显示全部楼层
感谢分享
回复 支持 反对

使用道具 举报

主题

帖子

15

积分

新手上路

Rank: 1

积分
15
发表于 2022-9-11 01:27:56 | 显示全部楼层
感謝版主的無私分享
回复 支持 反对

使用道具 举报

4

主题

1762

帖子

4906

积分

4K家园VIP

Rank: 9Rank: 9Rank: 9

积分
4906
发表于 2022-9-11 04:49:53 | 显示全部楼层
楼猪辛苦了,支持一下分享好资源
回复 支持 反对

使用道具 举报

您需要登录后才可以回帖 登录 | 立即注册

本版积分规则

精彩图文
Archiver|手机版|TAG|Sitemap|新帖|专题|联系我们:邮箱: 4kjia.com@gmail.com   

4k家园   ©2019