公寓大楼里的谋杀案 (2022) / 第二季全/4K高清版本下载

[复制链接]

205

主题

228

帖子

2261

积分

版主

Rank: 7Rank: 7Rank: 7

积分
2261
 楼主| 发表于 2022-9-10 19:57:51 | 显示全部楼层 |阅读模式
f7d4fd9b37502bc09f3d8d0ff9a75dbe_副本.jpg

◎译  名 公寓大楼里的谋杀案 第二季/大楼里的谋杀/大楼里唯一的谋杀案/大楼里只有谋杀
◎片  名 Only Murders in the Building Season 2
◎年  代 2022
◎产  地 美国
◎类  别 剧情/喜剧/悬疑/惊悚/犯罪
◎语  言 英语
◎上映日期 2022-06-28(美国)
◎IMDb评分 8.1/10 from 91856 users
◎IMDb链接 https://www.imdb.com/title/tt12851524/
◎豆瓣评分 8.3/10 from 7532 users
◎豆瓣链接 https://douban.com/subject/35599435/
◎集  数 10
◎编  剧 史蒂夫·马丁 Steve Martin / 约翰·霍夫曼 John Hoffman / 约书亚·艾伦·格里菲斯 Joshua Allen Griffith
◎主  演 赛琳娜·戈麦斯 Selena Gomez
       史蒂夫·马丁 Steve Martin
       马丁·肖特 Martin Short
       蒂娜·菲 Tina Fey
       雪莉·麦克雷恩 Shirley MacLaine
         卡拉·迪瓦伊 Cara Delevingne
       艾米·舒默 Amy Schumer
       佐伊·玛格丽特·科莱蒂 Zoe Margaret Colletti
       内森·连恩 Nathan Lane
       安德列·马丁 Andrea Martin
       迈克尔·拉帕波特 Michael Rapaport

◎简  介

  在Arconia董事会主席Bunny Folger、Charles、Oliver&;梅布尔跑去揭开凶手的面具。观看2022年6月28日由史蒂夫·马丁、马丁·肖特和赛琳娜·戈麦斯主演的《大楼里唯一的谋杀》第二季。仅在Hulu上。

Video
ID : 1
Format : HEVC
Format/Info : High Efficiency Video Coding
Format profile : Main 10@L5.1@Main
HDR format : Dolby Vision, Version 1.0, dvhe.08.06, BL+RPU, HDR10 compatible / SMPTE ST 2094 App 4, Version 1, HDR10+ Profile B compatible
Codec ID : V_MPEGH/ISO/HEVC
Duration : 35 min 20 s
Bit rate : 10.4 Mb/s
Width : 3 840 pixels
Height : 2 160 pixels
Display aspect ratio : 16:9
Frame rate mode : Constant
Frame rate : 23.976 (24000/1001) FPS
Color space : YUV
Chroma subsampling : 4:2:0 (Type 2)
Bit depth : 10 bits
Bits/(Pixel*Frame) : 0.052
Stream size : 2.56 GiB (98%)
Default : Yes
Forced : No
Color range : Limited
Color primaries : BT.2020
Transfer characteristics : PQ
Matrix coefficients : BT.2020 non-constant
Mastering display color primaries : Display P3
Mastering display luminance : min: 0.0001 cd/m2, max: 1000 cd/m2
Maximum Content Light Level : 2430 cd/m2
Maximum Frame-Average Light Level : 137 cd/m2

Audio
ID : 2
Format : E-AC-3
Format/Info : Enhanced AC-3
Commercial name : Dolby Digital Plus
Codec ID : A_EAC3
Duration : 35 min 20 s
Bit rate mode : Constant
Bit rate : 256 kb/s
Channel(s) : 6 channels
Channel layout : L R C LFE Ls Rs
Sampling rate : 48.0 kHz
Frame rate : 31.250 FPS (1536 SPF)
Compression mode : Lossy
Stream size : 64.7 MiB (2%)
Language : English
Service kind : Complete Main
Default : Yes
Forced : No

Text #1
ID : 3
Format : UTF-8
Codec ID : S_TEXT/UTF8
Codec ID/Info : UTF-8 Plain Text
Duration : 34 min 16 s
Bit rate : 82 b/s
Frame rate : 0.311 FPS
Count of elements : 639
Stream size : 20.6 KiB (0%)
Language : English
Default : No
Forced : No

Text #2
ID : 4
Format : UTF-8
Codec ID : S_TEXT/UTF8
Codec ID/Info : UTF-8 Plain Text
Duration : 35 min 6 s
Bit rate : 93 b/s
Frame rate : 0.369 FPS
Count of elements : 778
Stream size : 24.1 KiB (0%)
Title : SDH
Language : English
Default : No
Forced : No

Text #3
ID : 5
Format : UTF-8
Codec ID : S_TEXT/UTF8
Codec ID/Info : UTF-8 Plain Text
Duration : 34 min 17 s
Bit rate : 89 b/s
Frame rate : 0.318 FPS
Count of elements : 655
Stream size : 22.5 KiB (0%)
Language : Spanish
Default : No
Forced : No

Menu
00:00:00.000 : en:Begin
00:08:54.000 : en:Chapter 1
00:18:07.000 : en:Chapter 2
00:25:59.000 : en:Chapter 3
00:34:22.000 : en:Chapter 4 - Credits

下载地址:

游客,如果您要查看本帖隐藏内容请回复

游客,如果您要查看本帖隐藏内容请回复







上一篇:龙之家族[DIY简繁粤中字](2022)第一季更至07集/4K高清版本下载
下一篇:红玫瑰 / Red Rose (2022) / 第一季全/4K高清版本下载
回复

使用道具 举报

50

主题

1554

帖子

4498

积分

4K家园VIP

Rank: 9Rank: 9Rank: 9

积分
4498
发表于 2022-9-10 20:12:14 | 显示全部楼层
顶顶更健康
回复 支持 反对

使用道具 举报

1

主题

1370

帖子

4138

积分

4K家园VIP

Rank: 9Rank: 9Rank: 9

积分
4138
发表于 2022-9-10 21:34:28 | 显示全部楼层
为了三千积分!
回复 支持 反对

使用道具 举报

0

主题

1470

帖子

4224

积分

4K家园VIP

Rank: 9Rank: 9Rank: 9

积分
4224
发表于 2022-9-10 21:47:10 | 显示全部楼层
回个帖子,下班咯~
回复 支持 反对

使用道具 举报

53

主题

1549

帖子

4487

积分

4K家园VIP

Rank: 9Rank: 9Rank: 9

积分
4487
发表于 2022-9-10 21:48:05 | 显示全部楼层
鄙视楼下的顶帖没我快,哈哈
回复 支持 反对

使用道具 举报

2

主题

1662

帖子

4528

积分

4K家园VIP

Rank: 9Rank: 9Rank: 9

积分
4528
发表于 2022-9-10 22:05:37 | 显示全部楼层
沙发???
回复 支持 反对

使用道具 举报

0

主题

3

帖子

12

积分

新手上路

Rank: 1

积分
12
发表于 3 天前 | 显示全部楼层
谢谢分享,十份感谢
回复 支持 反对

使用道具 举报

0

主题

6

帖子

34

积分

新手上路

Rank: 1

积分
34
发表于 3 天前 来自手机 | 显示全部楼层
谢谢分享~~~~
回复 支持 反对

使用道具 举报

您需要登录后才可以回帖 登录 | 立即注册

本版积分规则

精彩图文
Archiver|手机版|TAG|Sitemap|新帖|专题|联系我们:邮箱: 4kjia.com@gmail.com   

4k家园   ©2019