红玫瑰 / Red Rose (2022) / 第一季全/4K高清版本下载

[复制链接]

205

主题

228

帖子

2261

积分

版主

Rank: 7Rank: 7Rank: 7

积分
2261
 楼主| 发表于 2022-9-10 20:10:10 | 显示全部楼层 |阅读模式
cb6cc4ef5ce5a503b40cea79d70a46cd_副本.jpg

◎译  名 红玫瑰
◎片  名 Red Rose
◎年  代 2022
◎产  地 英国
◎类  别 剧情/恐怖
◎语  言 英语
◎IMDb评分 6.3/10 from 617 users
◎IMDb链接 https://www.imdb.com/title/tt19788500/
◎豆瓣评分 0/10 from 0 users
◎豆瓣链接 https://douban.com/subject/34805700/
◎集  数 8
◎导  演 拉蒙·萨拉萨尔 Ramón Salazar
◎编  剧 迈克尔·克拉克森 Michael Clarkson / 保罗·克拉克森 Paul Clarkson
◎主  演 阿梅利亚·克拉克森 Amelia Clarkson
       塞缪尔·安德森 Samuel Anderson
       亚当·那加提斯 Adam Nagaitis
       娜塔莉·加文 Natalie Gavin
       阿里·坎 Ali Khan
       鲁德·哈利特 Rod Hallett
       罗宾·卡拉 Robyn Cara
       查理·希斯科克 Charlie Hiscock

◎简  介

  兄弟档Michael及Paul Clarkson为BBC 3执笔一部8集恐怖剧《红玫瑰 Red Rose》,剧中一群中学生在夏季时毫无目标﹑方向,此时他们得知一个都市传说「红玫瑰」手机应用程式,它会鼓励你接受越来越危险的挑战。女主Rochelle Jackson在朋友圈里犹如边缘人,于是天真的她下载了这个APP,这使得镇上发生一连串事情,最终她和朋友们得团结起来对抗这疑似牵涉到超自然的事件。

Video
ID : 1
Format : HEVC
Format/Info : High Efficiency Video Coding
Format profile : Main 10@L5.1@Main
Codec ID : V_MPEGH/ISO/HEVC
Duration : 47 min 39 s
Bit rate : 18.5 Mb/s
Width : 3 840 pixels
Height : 2 160 pixels
Display aspect ratio : 16:9
Frame rate mode : Constant
Frame rate : 25.000 FPS
Standard : Component
Color space : YUV
Chroma subsampling : 4:2:0
Bit depth : 10 bits
Bits/(Pixel*Frame) : 0.089
Stream size : 6.16 GiB (99%)
Default : Yes
Forced : No
Color range : Limited
Color primaries : BT.2020
Transfer characteristics : HLG
transfer_characteristics_Original : HLG / BT.2020 (10-bit)
Matrix coefficients : BT.2020 non-constant

Audio
ID : 2
Format : AAC LC
Format/Info : Advanced Audio Codec Low Complexity
Codec ID : A_AAC-2
Duration : 47 min 39 s
Bit rate : 192 kb/s
Channel(s) : 2 channels
Channel layout : L R
Sampling rate : 48.0 kHz
Frame rate : 46.875 FPS (1024 SPF)
Compression mode : Lossy
Stream size : 64.5 MiB (1%)
Language : English
Default : Yes
Forced : No

Text #1
ID : 3
Format : UTF-8
Codec ID : S_TEXT/UTF8
Codec ID/Info : UTF-8 Plain Text
Duration : 47 min 0 s
Bit rate : 45 b/s
Frame rate : 0.200 FPS
Count of elements : 565
Stream size : 15.6 KiB (0%)
Language : English
Default : No
Forced : No

Text #2
ID : 4
Format : UTF-8
Codec ID : S_TEXT/UTF8
Codec ID/Info : UTF-8 Plain Text
Duration : 47 min 32 s
Bit rate : 57 b/s
Frame rate : 0.257 FPS
Count of elements : 732
Stream size : 19.9 KiB (0%)
Title : SDH
Language : English
Default : No
Forced : No

下载地址:

游客,如果您要查看本帖隐藏内容请回复







上一篇:公寓大楼里的谋杀案 (2022) / 第二季全/4K高清版本下载
下一篇:度假胜地心慌慌 / The Resort (2022) / 第一季全/4K高清版本下载
回复

使用道具 举报

5

主题

1651

帖子

4573

积分

中级会员

Rank: 4

积分
4573
发表于 2022-9-10 20:12:44 | 显示全部楼层
支持楼主,用户楼主,楼主英明呀!!!
回复 支持 反对

使用道具 举报

0

主题

9

帖子

70

积分

新手上路

Rank: 1

积分
70
发表于 2022-9-10 21:43:43 | 显示全部楼层
谢谢楼主分享。
回复 支持 反对

使用道具 举报

0

主题

8663

帖子

2万

积分

4K家园VIP

Rank: 9Rank: 9Rank: 9

积分
20189
发表于 2022-9-10 21:44:10 | 显示全部楼层
太好啦&萬分感謝版主的無私發佈分享%
回复 支持 反对

使用道具 举报

2

主题

1206

帖子

3636

积分

4K家园VIP

Rank: 9Rank: 9Rank: 9

积分
3636
发表于 2022-9-11 22:23:29 | 显示全部楼层
路过 帮顶 嘿嘿
回复 支持 反对

使用道具 举报

1

主题

1615

帖子

4453

积分

4K家园VIP

Rank: 9Rank: 9Rank: 9

积分
4453
发表于 2022-9-17 06:23:51 | 显示全部楼层
没看懂
回复 支持 反对

使用道具 举报

2

主题

1404

帖子

4236

积分

4K家园VIP

Rank: 9Rank: 9Rank: 9

积分
4236
发表于 2022-9-22 06:42:39 | 显示全部楼层
秀起来~
回复 支持 反对

使用道具 举报

0

主题

8663

帖子

2万

积分

4K家园VIP

Rank: 9Rank: 9Rank: 9

积分
20189
发表于 2022-9-22 07:40:41 | 显示全部楼层
太好啦&萬分感謝版主的無私發佈分享%
回复 支持 反对

使用道具 举报

48

主题

1553

帖子

4469

积分

4K家园VIP

Rank: 9Rank: 9Rank: 9

积分
4469
发表于 2022-9-22 14:36:33 | 显示全部楼层
感谢分享
回复 支持 反对

使用道具 举报

您需要登录后才可以回帖 登录 | 立即注册

本版积分规则

精彩图文
Archiver|手机版|TAG|Sitemap|新帖|专题|联系我们:邮箱: 4kjia.com@gmail.com   

4k家园   ©2019