尝试 [简繁粤中字](2022)/第三季全/4K高清版本下载

[复制链接]

205

主题

228

帖子

2261

积分

版主

Rank: 7Rank: 7Rank: 7

积分
2261
 楼主| 发表于 2022-9-10 20:34:47 | 显示全部楼层 |阅读模式
本帖最后由 美剧小虾 于 2022-9-10 20:36 编辑

9e30da8959442afc94b5ceda29dc41e7_副本.jpg

◎译  名 尝试 第三季
◎片  名 Trying Season 3
◎年  代 2022
◎产  地 英国
◎类  别 剧情/喜剧/爱情
◎语  言 英语
◎上映日期 2022-07-22(英国)
◎IMDb评分 7.9/10 from 7860 users
◎IMDb链接 https://www.imdb.com/title/tt10982034/
◎豆瓣评分 9.4/ 3310 from 0 users
◎豆瓣链接 https://douban.com/subject/35411286/
◎集  数 8
◎片  长 30分钟
◎导  演 埃利奥特·赫加蒂 Elliot Hegarty
◎编  剧 玛格丽特·卡本·史密斯 Margaret Cabourn-Smith / Izzy Mant Izzy Mant / 安迪·沃尔顿 Andy Wolton
◎主  演 拉菲·斯波 Rafe Spall
       埃丝特·史密斯 Esther Smith
       珊·布鲁克 Sian Brooke
       奥利弗·克里斯 Oliver Chris
       达伦·博伊德 Darren Boyd
       保拉·威尔科克斯 Paula Wilcox
       罗德里克·史密斯 Roderick Smith
       陈信妃 Shin-Fei Chen
       卡尔·柯林斯 Karl Collins
       菲尔·戴维斯 Phil Davis
       玛丽安·麦克劳林 Marian McLoughlin
       James Doherty James Doherty
       格雷厄姆·埃尔韦尔 Graham Elwell

◎简  介

  尼基和杰森终于尝试让他们的梦想家庭成为永久的现实。

由SAG奖提名人Rafe Spall、BAFTA提名人Esther Smith主演,由安迪·沃尔顿(Andy Wolton)编剧的《尝试》是一部由苹果电视+和BBC工作室制作的喜剧系列片,讲述了一对三十多岁的夫妇和他们的朋友如何学习成长、安顿下来并找到爱的人。


Video
ID : 1
Format : HEVC
Format/Info : High Efficiency Video Coding
Format profile : Main 10@L5@High
HDR format : Dolby Vision, Version 1.0, dvhe.05.06, BL+RPU
Codec ID : V_MPEGH/ISO/HEVC
Duration : 33 min 23 s
Bit rate : 24.5 Mb/s
Width : 3 840 pixels
Height : 1 920 pixels
Display aspect ratio : 2.000
Frame rate mode : Constant
Frame rate : 23.976 (24000/1001) FPS
Color space : YUV
Chroma subsampling : 4:2:0
Bit depth : 10 bits
Bits/(Pixel*Frame) : 0.139
Stream size : 5.72 GiB (97%)
Default : Yes
Forced : No

Audio
ID : 2
Format : E-AC-3 JOC
Format/Info : Enhanced AC-3 with Joint Object Coding
Commercial name : Dolby Digital Plus with Dolby Atmos
Codec ID : A_EAC3
Duration : 33 min 23 s
Bit rate mode : Constant
Bit rate : 768 kb/s
Channel(s) : 6 channels
Channel layout : L R C LFE Ls Rs
Sampling rate : 48.0 kHz
Frame rate : 31.250 FPS (1536 SPF)
Compression mode : Lossy
Stream size : 183 MiB (3%)
Language : English
Service kind : Complete Main
Default : Yes
Forced : No
Complexity index : 16
Number of dynamic objects : 15
Bed channel count : 1 channel
Bed channel configuration : LFE

Text #1
ID : 3
Format : UTF-8
Codec ID : S_TEXT/UTF8
Codec ID/Info : UTF-8 Plain Text
Duration : 32 min 9 s
Bit rate : 70 b/s
Frame rate : 0.243 FPS
Count of elements : 468
Stream size : 16.7 KiB (0%)
Language : English
Default : No
Forced : No

Text #2
ID : 4
Format : UTF-8
Codec ID : S_TEXT/UTF8
Codec ID/Info : UTF-8 Plain Text
Duration : 32 min 16 s
Bit rate : 83 b/s
Frame rate : 0.274 FPS
Count of elements : 530
Stream size : 19.7 KiB (0%)
Title : SDH
Language : English
Default : No
Forced : No

Text #3
ID : 5
Format : UTF-8
Codec ID : S_TEXT/UTF8
Codec ID/Info : UTF-8 Plain Text
Duration : 33 min 12 s
Bit rate : 93 b/s
Frame rate : 0.238 FPS
Count of elements : 475
Stream size : 22.8 KiB (0%)
Language : Arabic
Default : No
Forced : No

Text #4
ID : 6
Format : UTF-8
Codec ID : S_TEXT/UTF8
Codec ID/Info : UTF-8 Plain Text
Duration : 33 min 11 s
Bit rate : 88 b/s
Frame rate : 0.210 FPS
Count of elements : 419
Stream size : 21.4 KiB (0%)
Language : Bulgarian
Default : No
Forced : No

Text #5
ID : 7
Format : UTF-8
Codec ID : S_TEXT/UTF8
Codec ID/Info : UTF-8 Plain Text
Duration : 33 min 12 s
Bit rate : 58 b/s
Frame rate : 0.238 FPS
Count of elements : 475
Stream size : 14.3 KiB (0%)
Title : 中文(简体)
Language : 中文
Default : No
Forced : No

Text #6
ID : 8
Format : UTF-8
Codec ID : S_TEXT/UTF8
Codec ID/Info : UTF-8 Plain Text
Duration : 33 min 12 s
Bit rate : 58 b/s
Frame rate : 0.239 FPS
Count of elements : 476
Stream size : 14.3 KiB (0%)
Title : Mandarin 中文(繁体)
Language : 中文
Default : No
Forced : No


Text #7
ID : 9
Format : UTF-8
Codec ID : S_TEXT/UTF8
Codec ID/Info : UTF-8 Plain Text
Duration : 33 min 12 s
Bit rate : 57 b/s
Frame rate : 0.218 FPS
Count of elements : 435
Stream size : 14.0 KiB (0%)
Language : Czech
Default : No
Forced : No

Text #8
ID : 10
Format : UTF-8
Codec ID : S_TEXT/UTF8
Codec ID/Info : UTF-8 Plain Text
Duration : 33 min 11 s
Bit rate : 59 b/s
Frame rate : 0.189 FPS
Count of elements : 377
Stream size : 14.5 KiB (0%)
Language : Danish
Default : No
Forced : No

Text #9
ID : 11
Format : UTF-8
Codec ID : S_TEXT/UTF8
Codec ID/Info : UTF-8 Plain Text
Duration : 32 min 22 s
Bit rate : 56 b/s
Frame rate : 0.250 FPS
Count of elements : 485
Stream size : 13.3 KiB (0%)
Language : German
Default : No
Forced : No

Text #10
ID : 12
Format : UTF-8
Codec ID : S_TEXT/UTF8
Codec ID/Info : UTF-8 Plain Text
Duration : 33 min 11 s
Bit rate : 108 b/s
Frame rate : 0.226 FPS
Count of elements : 450
Stream size : 26.4 KiB (0%)
Language : Greek
Default : No
Forced : No

Text #11
ID : 13
Format : UTF-8
Codec ID : S_TEXT/UTF8
Codec ID/Info : UTF-8 Plain Text
Duration : 33 min 12 s
Bit rate : 65 b/s
Frame rate : 0.237 FPS
Count of elements : 473
Stream size : 15.9 KiB (0%)
Title : Spanish (Latin America)
Language : Spanish
Default : No
Forced : No

Text #12
ID : 14
Format : UTF-8
Codec ID : S_TEXT/UTF8
Codec ID/Info : UTF-8 Plain Text
Duration : 33 min 12 s
Bit rate : 63 b/s
Frame rate : 0.234 FPS
Count of elements : 467
Stream size : 15.5 KiB (0%)
Title : Spanish (Spain)
Language : Spanish
Default : No
Forced : No

Text #13
ID : 15
Format : UTF-8
Codec ID : S_TEXT/UTF8
Codec ID/Info : UTF-8 Plain Text
Duration : 33 min 11 s
Bit rate : 59 b/s
Frame rate : 0.214 FPS
Count of elements : 426
Stream size : 14.4 KiB (0%)
Language : Estonian
Default : No
Forced : No

Text #14
ID : 16
Format : UTF-8
Codec ID : S_TEXT/UTF8
Codec ID/Info : UTF-8 Plain Text
Duration : 33 min 12 s
Bit rate : 61 b/s
Frame rate : 0.231 FPS
Count of elements : 460
Stream size : 15.1 KiB (0%)
Language : Finnish
Default : No
Forced : No

Text #15
ID : 17
Format : UTF-8
Codec ID : S_TEXT/UTF8
Codec ID/Info : UTF-8 Plain Text
Duration : 32 min 20 s
Bit rate : 58 b/s
Frame rate : 0.253 FPS
Count of elements : 491
Stream size : 13.9 KiB (0%)
Title : French (Canada)
Language : French
Default : No
Forced : No

Text #16
ID : 18
Format : UTF-8
Codec ID : S_TEXT/UTF8
Codec ID/Info : UTF-8 Plain Text
Duration : 32 min 20 s
Bit rate : 58 b/s
Frame rate : 0.253 FPS
Count of elements : 490
Stream size : 13.8 KiB (0%)
Title : French (France)
Language : French
Default : No
Forced : No

Text #17
ID : 19
Format : UTF-8
Codec ID : S_TEXT/UTF8
Codec ID/Info : UTF-8 Plain Text
Duration : 33 min 12 s
Bit rate : 89 b/s
Frame rate : 0.238 FPS
Count of elements : 475
Stream size : 21.8 KiB (0%)
Language : Hebrew
Default : No
Forced : No

Text #18
ID : 20
Format : UTF-8
Codec ID : S_TEXT/UTF8
Codec ID/Info : UTF-8 Plain Text
Duration : 33 min 12 s
Bit rate : 173 b/s
Frame rate : 0.239 FPS
Count of elements : 476
Stream size : 42.1 KiB (0%)
Language : Hindi
Default : No
Forced : No

Text #19
ID : 21
Format : UTF-8
Codec ID : S_TEXT/UTF8
Codec ID/Info : UTF-8 Plain Text
Duration : 33 min 12 s
Bit rate : 66 b/s
Frame rate : 0.238 FPS
Count of elements : 474
Stream size : 16.3 KiB (0%)
Language : Hungarian
Default : No
Forced : No

Text #20
ID : 22
Format : UTF-8
Codec ID : S_TEXT/UTF8
Codec ID/Info : UTF-8 Plain Text
Duration : 33 min 12 s
Bit rate : 62 b/s
Frame rate : 0.237 FPS
Count of elements : 473
Stream size : 15.2 KiB (0%)
Language : Indonesian
Default : No
Forced : No

Text #21
ID : 23
Format : UTF-8
Codec ID : S_TEXT/UTF8
Codec ID/Info : UTF-8 Plain Text
Duration : 33 min 1 s
Bit rate : 64 b/s
Frame rate : 0.239 FPS
Count of elements : 474
Stream size : 15.5 KiB (0%)
Language : Italian
Default : No
Forced : No

Text #22
ID : 24
Format : UTF-8
Codec ID : S_TEXT/UTF8
Codec ID/Info : UTF-8 Plain Text
Duration : 33 min 14 s
Bit rate : 51 b/s
Frame rate : 0.238 FPS
Count of elements : 474
Stream size : 12.5 KiB (0%)
Language : Japanese
Default : No
Forced : No

Text #23
ID : 25
Format : UTF-8
Codec ID : S_TEXT/UTF8
Codec ID/Info : UTF-8 Plain Text
Duration : 33 min 12 s
Bit rate : 70 b/s
Frame rate : 0.239 FPS
Count of elements : 476
Stream size : 17.1 KiB (0%)
Language : Korean
Default : No
Forced : No

Text #24
ID : 26
Format : UTF-8
Codec ID : S_TEXT/UTF8
Codec ID/Info : UTF-8 Plain Text
Duration : 33 min 11 s
Bit rate : 61 b/s
Frame rate : 0.229 FPS
Count of elements : 457
Stream size : 15.0 KiB (0%)
Language : Lithuanian
Default : No
Forced : No

Text #25
ID : 27
Format : UTF-8
Codec ID : S_TEXT/UTF8
Codec ID/Info : UTF-8 Plain Text
Duration : 33 min 12 s
Bit rate : 64 b/s
Frame rate : 0.229 FPS
Count of elements : 457
Stream size : 15.7 KiB (0%)
Language : Latvian
Default : No
Forced : No

Text #26
ID : 28
Format : UTF-8
Codec ID : S_TEXT/UTF8
Codec ID/Info : UTF-8 Plain Text
Duration : 33 min 12 s
Bit rate : 66 b/s
Frame rate : 0.237 FPS
Count of elements : 473
Stream size : 16.2 KiB (0%)
Language : Malay
Default : No
Forced : No

Text #27
ID : 29
Format : UTF-8
Codec ID : S_TEXT/UTF8
Codec ID/Info : UTF-8 Plain Text
Duration : 33 min 11 s
Bit rate : 56 b/s
Frame rate : 0.201 FPS
Count of elements : 400
Stream size : 13.7 KiB (0%)
Language : Dutch
Default : No
Forced : No

Text #28
ID : 30
Format : UTF-8
Codec ID : S_TEXT/UTF8
Codec ID/Info : UTF-8 Plain Text
Duration : 33 min 12 s
Bit rate : 57 b/s
Frame rate : 0.220 FPS
Count of elements : 438
Stream size : 14.0 KiB (0%)
Language : Norwegian
Default : No
Forced : No

Text #29
ID : 31
Format : UTF-8
Codec ID : S_TEXT/UTF8
Codec ID/Info : UTF-8 Plain Text
Duration : 33 min 11 s
Bit rate : 57 b/s
Frame rate : 0.227 FPS
Count of elements : 452
Stream size : 14.1 KiB (0%)
Language : Polish
Default : No
Forced : No

Text #30
ID : 32
Format : UTF-8
Codec ID : S_TEXT/UTF8
Codec ID/Info : UTF-8 Plain Text
Duration : 33 min 12 s
Bit rate : 61 b/s
Frame rate : 0.233 FPS
Count of elements : 465
Stream size : 14.9 KiB (0%)
Title : Portuguese
Language : Portuguese
Default : No
Forced : No

Text #31
ID : 33
Format : UTF-8
Codec ID : S_TEXT/UTF8
Codec ID/Info : UTF-8 Plain Text
Duration : 33 min 12 s
Bit rate : 57 b/s
Frame rate : 0.229 FPS
Count of elements : 456
Stream size : 14.0 KiB (0%)
Title : Portuguese (Brazil)
Language : Portuguese
Default : No
Forced : No

Text #32
ID : 34
Format : UTF-8
Codec ID : S_TEXT/UTF8
Codec ID/Info : UTF-8 Plain Text
Duration : 33 min 15 s
Bit rate : 94 b/s
Frame rate : 0.240 FPS
Count of elements : 478
Stream size : 22.9 KiB (0%)
Language : Russian
Default : No
Forced : No

Text #33
ID : 35
Format : UTF-8
Codec ID : S_TEXT/UTF8
Codec ID/Info : UTF-8 Plain Text
Duration : 33 min 11 s
Bit rate : 55 b/s
Frame rate : 0.232 FPS
Count of elements : 463
Stream size : 13.6 KiB (0%)
Language : Slovak
Default : No
Forced : No

Text #34
ID : 36
Format : UTF-8
Codec ID : S_TEXT/UTF8
Codec ID/Info : UTF-8 Plain Text
Duration : 33 min 11 s
Bit rate : 51 b/s
Frame rate : 0.214 FPS
Count of elements : 427
Stream size : 12.4 KiB (0%)
Language : Slovenian
Default : No
Forced : No

Text #35
ID : 37
Format : UTF-8
Codec ID : S_TEXT/UTF8
Codec ID/Info : UTF-8 Plain Text
Duration : 33 min 11 s
Bit rate : 61 b/s
Frame rate : 0.236 FPS
Count of elements : 470
Stream size : 15.1 KiB (0%)
Language : Swedish
Default : No
Forced : No

Text #36
ID : 38
Format : UTF-8
Codec ID : S_TEXT/UTF8
Codec ID/Info : UTF-8 Plain Text
Duration : 33 min 12 s
Bit rate : 195 b/s
Frame rate : 0.238 FPS
Count of elements : 475
Stream size : 47.7 KiB (0%)
Language : Tamil
Default : No
Forced : No

Text #37
ID : 39
Format : UTF-8
Codec ID : S_TEXT/UTF8
Codec ID/Info : UTF-8 Plain Text
Duration : 33 min 12 s
Bit rate : 201 b/s
Frame rate : 0.238 FPS
Count of elements : 475
Stream size : 49.0 KiB (0%)
Language : Telugu
Default : No
Forced : No

Text #38
ID : 40
Format : UTF-8
Codec ID : S_TEXT/UTF8
Codec ID/Info : UTF-8 Plain Text
Duration : 33 min 12 s
Bit rate : 163 b/s
Frame rate : 0.238 FPS
Count of elements : 475
Stream size : 39.9 KiB (0%)
Language : Thai
Default : No
Forced : No

Text #39
ID : 41
Format : UTF-8
Codec ID : S_TEXT/UTF8
Codec ID/Info : UTF-8 Plain Text
Duration : 33 min 12 s
Bit rate : 65 b/s
Frame rate : 0.236 FPS
Count of elements : 470
Stream size : 16.0 KiB (0%)
Language : Turkish
Default : No
Forced : No

Text #40
ID : 42
Format : UTF-8
Codec ID : S_TEXT/UTF8
Codec ID/Info : UTF-8 Plain Text
Duration : 33 min 12 s
Bit rate : 98 b/s
Frame rate : 0.239 FPS
Count of elements : 476
Stream size : 23.9 KiB (0%)
Language : Ukrainian
Default : No
Forced : No

Text #41
ID : 43
Format : UTF-8
Codec ID : S_TEXT/UTF8
Codec ID/Info : UTF-8 Plain Text
Duration : 33 min 12 s
Bit rate : 87 b/s
Frame rate : 0.238 FPS
Count of elements : 474
Stream size : 21.2 KiB (0%)
Language : Vietnamese
Default : No
Forced : No

Text #42
ID : 44
Format : UTF-8
Codec ID : S_TEXT/UTF8
Codec ID/Info : UTF-8 Plain Text
Duration : 33 min 12 s
Bit rate : 56 b/s
Frame rate : 0.239 FPS
Count of elements : 476
Stream size : 13.8 KiB (0%)
Title : 中文(粤语)
Language : 中文
Default : No
Forced : No

下载地址:

游客,如果您要查看本帖隐藏内容请回复

游客,如果您要查看本帖隐藏内容请回复

游客,如果您要查看本帖隐藏内容请回复

游客,如果您要查看本帖隐藏内容请回复






上一篇:度假胜地心慌慌 / The Resort (2022) / 第一季全/4K高清版本下载
下一篇:浮出水面 [简繁粤中字](2022)/第一季全/4K高清版本下载
回复

使用道具 举报

2

主题

1745

帖子

4869

积分

4K家园VIP

Rank: 9Rank: 9Rank: 9

积分
4869
发表于 2022-9-10 20:35:14 | 显示全部楼层
正需要
回复 支持 反对

使用道具 举报

0

主题

8663

帖子

2万

积分

4K家园VIP

Rank: 9Rank: 9Rank: 9

积分
20189
发表于 2022-9-10 21:45:02 | 显示全部楼层
太好啦&萬分感謝版主的無私發佈分享%
回复 支持 反对

使用道具 举报

0

主题

107

帖子

645

积分

新手上路

Rank: 1

积分
645
发表于 2022-9-13 09:29:55 | 显示全部楼层
感謝版主的無私發佈
回复 支持 反对

使用道具 举报

3

主题

1725

帖子

4769

积分

4K家园VIP

Rank: 9Rank: 9Rank: 9

积分
4769
发表于 2022-9-13 11:17:17 来自手机 | 显示全部楼层
占位编辑
回复 支持 反对

使用道具 举报

48

主题

1547

帖子

4513

积分

4K家园VIP

Rank: 9Rank: 9Rank: 9

积分
4513
发表于 2022-9-23 09:13:51 来自手机 | 显示全部楼层
支持你哈...................................
回复 支持 反对

使用道具 举报

4

主题

1678

帖子

4604

积分

4K家园VIP

Rank: 9Rank: 9Rank: 9

积分
4604
发表于 2022-9-25 01:32:04 | 显示全部楼层
无论是不是沙发都得回复下
回复 支持 反对

使用道具 举报

0

主题

8663

帖子

2万

积分

4K家园VIP

Rank: 9Rank: 9Rank: 9

积分
20189
发表于 2022-9-25 10:31:18 | 显示全部楼层
太好啦&萬分感謝版主的無私發佈分享%
回复 支持 反对

使用道具 举报

0

主题

1376

帖子

4142

积分

4K家园VIP

Rank: 9Rank: 9Rank: 9

积分
4142
发表于 4 天前 来自手机 | 显示全部楼层
围观 围观 沙发在哪里!!!
回复 支持 反对

使用道具 举报

您需要登录后才可以回帖 登录 | 立即注册

本版积分规则

精彩图文
Archiver|手机版|TAG|Sitemap|新帖|专题|联系我们:邮箱: 4kjia.com@gmail.com   

4k家园   ©2019