艾拉的青春日志2.0 [简繁粤](2022)/第一季全/4K高清版本下载

[复制链接]

205

主题

228

帖子

2261

积分

版主

Rank: 7Rank: 7Rank: 7

积分
2261
 楼主| 发表于 2022-9-12 11:26:00 | 显示全部楼层 |阅读模式
p2878261178_副本.jpg

◎译  名 艾拉的青春日志2.0 第一季
◎片  名 Life.by.Ella Season 1
◎年  代 2022
◎产  地 美国
◎类  别 剧情
◎语  言 英语
◎上映日期 2022-09-02(美国)
◎IMDb评分 6.8/10 from 84 users
◎IMDb链接 https://www.imdb.com/title/tt20230770/
◎豆瓣评分 0/ 0 from 0 users
◎豆瓣链接 https://movie.douban.com/subject/36059211/
◎集  数 10
◎导  演 Jeff Hodsden / Tim Pollock
◎主  演 莉莉·布鲁克斯 Lily Brooks O'Briant
                   阿蒂恩·塞莱斯汀 Artyon Celestine
                   凯文·拉姆 Kevin Rahm
                   瓦妮莎·卡拉斯科 Vanessa Carrasco
                   玛丽·费伯 Mary Faber
                   艾丹·华莱士 Aidan Wallace
                   克洛伊·科尔曼 Chloe Coleman
                   杰克逊·多林格 Jackson Dollinger
                   玛雅·林恩·罗宾逊 Maya Lynne Robinson
                   阿什兰·罗万 Ashlan Rowan



◎简  介


         在一次改变人生的经历后,13岁的艾拉渴望把握住每一天。当她学会珍惜每一刻的同时,她勇敢地面对以往内心的恐惧,并且鼓励他人也破除心里的畏惧。
Video
ID : 1
Format : HEVC
Format/Info : High Efficiency Video Coding
Format profile : Main 10@L5@High
HDR format : SMPTE ST 2086, HDR10 compatible
Codec ID : V_MPEGH/ISO/HEVC
Duration : 27 min 36 s
Bit rate : 24.1 Mb/s
Width : 3 840 pixels
Height : 2 160 pixels
Display aspect ratio : 16:9
Frame rate mode : Constant
Frame rate : 23.976 (23976/1000) FPS
Color space : YUV
Chroma subsampling : 4:2:0 (Type 2)
Bit depth : 10 bits
Bits/(Pixel*Frame) : 0.121
Stream size : 4.65 GiB (97%)
Language : English
Default : Yes
Forced : No
Color range : Limited
Color primaries : BT.2020
Transfer characteristics : PQ
Matrix coefficients : BT.2020 non-constant
Mastering display color primaries : Display P3
Mastering display luminance : min: 0.0050 cd/m2, max: 1000 cd/m2
Maximum Content Light Level : 848 cd/m2
Maximum Frame-Average Light Level : 505 cd/m2

Audio
ID : 2
Format : E-AC-3 JOC
Format/Info : Enhanced AC-3 with Joint Object Coding
Commercial name : Dolby Digital Plus with Dolby Atmos
Codec ID : A_EAC3
Duration : 27 min 36 s
Bit rate mode : Constant
Bit rate : 768 kb/s
Channel(s) : 6 channels
Channel layout : L R C LFE Ls Rs
Sampling rate : 48.0 kHz
Frame rate : 31.250 FPS (1536 SPF)
Compression mode : Lossy
Stream size : 152 MiB (3%)
Language : English
Service kind : Complete Main
Default : Yes
Forced : No
Complexity index : 16
Number of dynamic objects : 15
Bed channel count : 1 channel
Bed channel configuration : LFE

Text #1
ID : 3
Format : UTF-8
Codec ID : S_TEXT/UTF8
Codec ID/Info : UTF-8 Plain Text
Duration : 25 min 23 s
Bit rate : 61 b/s
Frame rate : 0.211 FPS
Count of elements : 322
Stream size : 11.4 KiB (0%)
Language : English
Default : No
Forced : No

Text #2
ID : 4
Format : UTF-8
Codec ID : S_TEXT/UTF8
Codec ID/Info : UTF-8 Plain Text
Duration : 26 min 0 s
Bit rate : 71 b/s
Frame rate : 0.254 FPS
Count of elements : 396
Stream size : 13.6 KiB (0%)
Title : SDH
Language : English
Default : No
Forced : No

Text #3
ID : 5
Format : UTF-8
Codec ID : S_TEXT/UTF8
Codec ID/Info : UTF-8 Plain Text
Duration : 27 min 4 s
Bit rate : 85 b/s
Frame rate : 0.202 FPS
Count of elements : 329
Stream size : 16.9 KiB (0%)
Language : Arabic
Default : No
Forced : No

Text #4
ID : 6
Format : UTF-8
Codec ID : S_TEXT/UTF8
Codec ID/Info : UTF-8 Plain Text
Duration : 27 min 1 s
Bit rate : 82 b/s
Frame rate : 0.173 FPS
Count of elements : 281
Stream size : 16.4 KiB (0%)
Language : Bulgarian
Default : No
Forced : No

Text #5
ID : 7
Format : UTF-8
Codec ID : S_TEXT/UTF8
Codec ID/Info : UTF-8 Plain Text
Duration : 27 min 4 s
Bit rate : 54 b/s
Frame rate : 0.202 FPS
Count of elements : 328
Stream size : 10.8 KiB (0%)
Title : 简体
Language : 中文
Default : No
Forced : No

Text #6
ID : 8
Format : UTF-8
Codec ID : S_TEXT/UTF8
Codec ID/Info : UTF-8 Plain Text
Duration : 27 min 4 s
Bit rate : 57 b/s
Frame rate : 0.202 FPS
Count of elements : 329
Stream size : 11.4 KiB (0%)
Title : 繁体
Language : 中文
Default : No
Forced : No

Text #7
ID : 9
Format : UTF-8
Codec ID : S_TEXT/UTF8
Codec ID/Info : UTF-8 Plain Text
Duration : 27 min 4 s
Bit rate : 48 b/s
Frame rate : 0.183 FPS
Count of elements : 298
Stream size : 9.63 KiB (0%)
Language : Czech
Default : No
Forced : No

Text #8
ID : 10
Format : UTF-8
Codec ID : S_TEXT/UTF8
Codec ID/Info : UTF-8 Plain Text
Duration : 27 min 4 s
Bit rate : 52 b/s
Frame rate : 0.168 FPS
Count of elements : 273
Stream size : 10.4 KiB (0%)
Language : Danish
Default : No
Forced : No

Text #9
ID : 11
Format : UTF-8
Codec ID : S_TEXT/UTF8
Codec ID/Info : UTF-8 Plain Text
Duration : 27 min 4 s
Bit rate : 63 b/s
Frame rate : 0.205 FPS
Count of elements : 333
Stream size : 12.5 KiB (0%)
Language : German
Default : No
Forced : No

Text #10
ID : 12
Format : UTF-8
Codec ID : S_TEXT/UTF8
Codec ID/Info : UTF-8 Plain Text
Duration : 27 min 4 s
Bit rate : 95 b/s
Frame rate : 0.191 FPS
Count of elements : 311
Stream size : 19.0 KiB (0%)
Language : Greek
Default : No
Forced : No

Text #11
ID : 13
Format : UTF-8
Codec ID : S_TEXT/UTF8
Codec ID/Info : UTF-8 Plain Text
Duration : 27 min 4 s
Bit rate : 56 b/s
Frame rate : 0.200 FPS
Count of elements : 325
Stream size : 11.1 KiB (0%)
Title : Latin American
Language : Spanish
Default : No
Forced : No

Text #12
ID : 14
Format : UTF-8
Codec ID : S_TEXT/UTF8
Codec ID/Info : UTF-8 Plain Text
Duration : 27 min 12 s
Bit rate : 56 b/s
Frame rate : 0.201 FPS
Count of elements : 329
Stream size : 11.2 KiB (0%)
Language : Spanish
Default : No
Forced : No

Text #13
ID : 15
Format : UTF-8
Codec ID : S_TEXT/UTF8
Codec ID/Info : UTF-8 Plain Text
Duration : 27 min 4 s
Bit rate : 52 b/s
Frame rate : 0.189 FPS
Count of elements : 307
Stream size : 10.4 KiB (0%)
Language : Estonian
Default : No
Forced : No

Text #14
ID : 16
Format : UTF-8
Codec ID : S_TEXT/UTF8
Codec ID/Info : UTF-8 Plain Text
Duration : 27 min 4 s
Bit rate : 47 b/s
Frame rate : 0.201 FPS
Count of elements : 327
Stream size : 9.52 KiB (0%)
Language : Finnish
Default : No
Forced : No

Text #15
ID : 17
Format : UTF-8
Codec ID : S_TEXT/UTF8
Codec ID/Info : UTF-8 Plain Text
Duration : 27 min 5 s
Bit rate : 56 b/s
Frame rate : 0.217 FPS
Count of elements : 353
Stream size : 11.2 KiB (0%)
Title : Canadian
Language : French
Default : No
Forced : No

Text #16
ID : 18
Format : UTF-8
Codec ID : S_TEXT/UTF8
Codec ID/Info : UTF-8 Plain Text
Duration : 27 min 5 s
Bit rate : 56 b/s
Frame rate : 0.217 FPS
Count of elements : 353
Stream size : 11.2 KiB (0%)
Language : French
Default : No
Forced : No

Text #17
ID : 19
Format : UTF-8
Codec ID : S_TEXT/UTF8
Codec ID/Info : UTF-8 Plain Text
Duration : 27 min 4 s
Bit rate : 80 b/s
Frame rate : 0.202 FPS
Count of elements : 329
Stream size : 15.9 KiB (0%)
Language : Hebrew
Default : No
Forced : No

Text #18
ID : 20
Format : UTF-8
Codec ID : S_TEXT/UTF8
Codec ID/Info : UTF-8 Plain Text
Duration : 27 min 4 s
Bit rate : 149 b/s
Frame rate : 0.202 FPS
Count of elements : 329
Stream size : 29.6 KiB (0%)
Language : Hindi
Default : No
Forced : No

Text #19
ID : 21
Format : UTF-8
Codec ID : S_TEXT/UTF8
Codec ID/Info : UTF-8 Plain Text
Duration : 27 min 4 s
Bit rate : 56 b/s
Frame rate : 0.195 FPS
Count of elements : 317
Stream size : 11.1 KiB (0%)
Language : Hungarian
Default : No
Forced : No

Text #20
ID : 22
Format : UTF-8
Codec ID : S_TEXT/UTF8
Codec ID/Info : UTF-8 Plain Text
Duration : 27 min 4 s
Bit rate : 59 b/s
Frame rate : 0.202 FPS
Count of elements : 328
Stream size : 11.9 KiB (0%)
Language : Indonesian
Default : No
Forced : No

Text #21
ID : 23
Format : UTF-8
Codec ID : S_TEXT/UTF8
Codec ID/Info : UTF-8 Plain Text
Duration : 27 min 12 s
Bit rate : 58 b/s
Frame rate : 0.200 FPS
Count of elements : 327
Stream size : 11.6 KiB (0%)
Language : Italian
Default : No
Forced : No

Text #22
ID : 24
Format : UTF-8
Codec ID : S_TEXT/UTF8
Codec ID/Info : UTF-8 Plain Text
Duration : 27 min 4 s
Bit rate : 55 b/s
Frame rate : 0.207 FPS
Count of elements : 336
Stream size : 11.1 KiB (0%)
Language : Japanese
Default : No
Forced : No

Text #23
ID : 25
Format : UTF-8
Codec ID : S_TEXT/UTF8
Codec ID/Info : UTF-8 Plain Text
Duration : 27 min 4 s
Bit rate : 61 b/s
Frame rate : 0.202 FPS
Count of elements : 329
Stream size : 12.1 KiB (0%)
Language : Korean
Default : No
Forced : No

Text #24
ID : 26
Format : UTF-8
Codec ID : S_TEXT/UTF8
Codec ID/Info : UTF-8 Plain Text
Duration : 27 min 4 s
Bit rate : 57 b/s
Frame rate : 0.201 FPS
Count of elements : 326
Stream size : 11.4 KiB (0%)
Language : Lithuanian
Default : No
Forced : No

Text #25
ID : 27
Format : UTF-8
Codec ID : S_TEXT/UTF8
Codec ID/Info : UTF-8 Plain Text
Duration : 27 min 4 s
Bit rate : 55 b/s
Frame rate : 0.188 FPS
Count of elements : 305
Stream size : 10.9 KiB (0%)
Language : Latvian
Default : No
Forced : No

Text #26
ID : 28
Format : UTF-8
Codec ID : S_TEXT/UTF8
Codec ID/Info : UTF-8 Plain Text
Duration : 27 min 4 s
Bit rate : 56 b/s
Frame rate : 0.202 FPS
Count of elements : 328
Stream size : 11.3 KiB (0%)
Language : Malay
Default : No
Forced : No

Text #27
ID : 29
Format : UTF-8
Codec ID : S_TEXT/UTF8
Codec ID/Info : UTF-8 Plain Text
Duration : 27 min 1 s
Bit rate : 47 b/s
Frame rate : 0.149 FPS
Count of elements : 241
Stream size : 9.32 KiB (0%)
Language : Dutch
Default : No
Forced : No

Text #28
ID : 30
Format : UTF-8
Codec ID : S_TEXT/UTF8
Codec ID/Info : UTF-8 Plain Text
Duration : 27 min 4 s
Bit rate : 54 b/s
Frame rate : 0.151 FPS
Count of elements : 245
Stream size : 10.7 KiB (0%)
Language : Norwegian
Default : No
Forced : No

Text #29
ID : 31
Format : UTF-8
Codec ID : S_TEXT/UTF8
Codec ID/Info : UTF-8 Plain Text
Duration : 27 min 4 s
Bit rate : 50 b/s
Frame rate : 0.197 FPS
Count of elements : 320
Stream size : 9.94 KiB (0%)
Language : Polish
Default : No
Forced : No

Text #30
ID : 32
Format : UTF-8
Codec ID : S_TEXT/UTF8
Codec ID/Info : UTF-8 Plain Text
Duration : 27 min 1 s
Bit rate : 56 b/s
Frame rate : 0.200 FPS
Count of elements : 324
Stream size : 11.2 KiB (0%)
Language : Portuguese
Default : No
Forced : No

Text #31
ID : 33
Format : UTF-8
Codec ID : S_TEXT/UTF8
Codec ID/Info : UTF-8 Plain Text
Duration : 27 min 4 s
Bit rate : 47 b/s
Frame rate : 0.196 FPS
Count of elements : 319
Stream size : 9.48 KiB (0%)
Title : Brazilian
Language : Portuguese
Default : No
Forced : No

Text #32
ID : 34
Format : UTF-8
Codec ID : S_TEXT/UTF8
Codec ID/Info : UTF-8 Plain Text
Duration : 27 min 12 s
Bit rate : 88 b/s
Frame rate : 0.200 FPS
Count of elements : 327
Stream size : 17.6 KiB (0%)
Language : Russian
Default : No
Forced : No

Text #33
ID : 35
Format : UTF-8
Codec ID : S_TEXT/UTF8
Codec ID/Info : UTF-8 Plain Text
Duration : 27 min 4 s
Bit rate : 50 b/s
Frame rate : 0.194 FPS
Count of elements : 316
Stream size : 9.96 KiB (0%)
Language : Slovak
Default : No
Forced : No

Text #34
ID : 36
Format : UTF-8
Codec ID : S_TEXT/UTF8
Codec ID/Info : UTF-8 Plain Text
Duration : 27 min 4 s
Bit rate : 45 b/s
Frame rate : 0.176 FPS
Count of elements : 286
Stream size : 9.10 KiB (0%)
Language : Slovenian
Default : No
Forced : No

Text #35
ID : 37
Format : UTF-8
Codec ID : S_TEXT/UTF8
Codec ID/Info : UTF-8 Plain Text
Duration : 27 min 4 s
Bit rate : 57 b/s
Frame rate : 0.182 FPS
Count of elements : 296
Stream size : 11.4 KiB (0%)
Language : Swedish
Default : No
Forced : No

Text #36
ID : 38
Format : UTF-8
Codec ID : S_TEXT/UTF8
Codec ID/Info : UTF-8 Plain Text
Duration : 27 min 4 s
Bit rate : 203 b/s
Frame rate : 0.202 FPS
Count of elements : 328
Stream size : 40.3 KiB (0%)
Language : Tamil
Default : No
Forced : No

Text #37
ID : 39
Format : UTF-8
Codec ID : S_TEXT/UTF8
Codec ID/Info : UTF-8 Plain Text
Duration : 27 min 4 s
Bit rate : 171 b/s
Frame rate : 0.202 FPS
Count of elements : 328
Stream size : 34.0 KiB (0%)
Language : Telugu
Default : No
Forced : No

Text #38
ID : 40
Format : UTF-8
Codec ID : S_TEXT/UTF8
Codec ID/Info : UTF-8 Plain Text
Duration : 27 min 4 s
Bit rate : 142 b/s
Frame rate : 0.202 FPS
Count of elements : 328
Stream size : 28.3 KiB (0%)
Language : Thai
Default : No
Forced : No

Text #39
ID : 41
Format : UTF-8
Codec ID : S_TEXT/UTF8
Codec ID/Info : UTF-8 Plain Text
Duration : 27 min 1 s
Bit rate : 58 b/s
Frame rate : 0.199 FPS
Count of elements : 322
Stream size : 11.6 KiB (0%)
Language : Turkish
Default : No
Forced : No

Text #40
ID : 42
Format : UTF-8
Codec ID : S_TEXT/UTF8
Codec ID/Info : UTF-8 Plain Text
Duration : 27 min 4 s
Bit rate : 79 b/s
Frame rate : 0.201 FPS
Count of elements : 327
Stream size : 15.7 KiB (0%)
Language : Ukrainian
Default : No
Forced : No

Text #41
ID : 43
Format : UTF-8
Codec ID : S_TEXT/UTF8
Codec ID/Info : UTF-8 Plain Text
Duration : 27 min 4 s
Bit rate : 73 b/s
Frame rate : 0.202 FPS
Count of elements : 329
Stream size : 14.6 KiB (0%)
Language : Vietnamese
Default : No
Forced : No

Text #42
ID : 44
Format : UTF-8
Codec ID : S_TEXT/UTF8
Codec ID/Info : UTF-8 Plain Text
Duration : 27 min 4 s
Bit rate : 51 b/s
Frame rate : 0.202 FPS
Count of elements : 329
Stream size : 10.2 KiB (0%)
Title : 粤语
Language : 中文
Default : No
Forced : No

下载地址

游客,如果您要查看本帖隐藏内容请回复

游客,如果您要查看本帖隐藏内容请回复

游客,如果您要查看本帖隐藏内容请回复

游客,如果您要查看本帖隐藏内容请回复






上一篇:浮出水面 [简繁粤中字](2022)/第一季全/4K高清版本下载
下一篇:过气万人迷 [简繁粤中字](2022)/第一季全/4K高清版本下载
回复

使用道具 举报

1

主题

1690

帖子

4726

积分

4K家园VIP

Rank: 9Rank: 9Rank: 9

积分
4726
发表于 2022-9-12 11:26:41 | 显示全部楼层
求沙发
回复 支持 反对

使用道具 举报

0

主题

8663

帖子

2万

积分

4K家园VIP

Rank: 9Rank: 9Rank: 9

积分
20189
发表于 2022-9-12 12:45:29 | 显示全部楼层
太好啦&萬分感謝版主的無私發佈分享%
回复 支持 反对

使用道具 举报

3

主题

1396

帖子

4020

积分

4K家园VIP

Rank: 9Rank: 9Rank: 9

积分
4020
发表于 2022-9-12 21:15:19 | 显示全部楼层
顶起顶起顶起
回复 支持 反对

使用道具 举报

0

主题

1407

帖子

4083

积分

4K家园VIP

Rank: 9Rank: 9Rank: 9

积分
4083
发表于 2022-9-13 01:37:09 | 显示全部楼层
看起来不错
回复 支持 反对

使用道具 举报

43

主题

1518

帖子

4362

积分

4K家园VIP

Rank: 9Rank: 9Rank: 9

积分
4362
发表于 2022-9-19 07:41:44 | 显示全部楼层
顶起出售广告位
回复 支持 反对

使用道具 举报

56

主题

1542

帖子

4482

积分

4K家园VIP

Rank: 9Rank: 9Rank: 9

积分
4482
发表于 2022-9-20 04:35:14 | 显示全部楼层
垃圾
回复 支持 反对

使用道具 举报

您需要登录后才可以回帖 登录 | 立即注册

本版积分规则

精彩图文
Archiver|手机版|TAG|Sitemap|新帖|专题|联系我们:邮箱: 4kjia.com@gmail.com   

4k家园   ©2019