芝加哥故事 / The Chi(2022)/第五季全/4K高清版本下载

[复制链接]

205

主题

228

帖子

2261

积分

版主

Rank: 7Rank: 7Rank: 7

积分
2261
 楼主| 发表于 2022-9-12 12:36:02 | 显示全部楼层 |阅读模式
本帖最后由 美剧小虾 于 2022-9-12 12:38 编辑

p2875350489_副本.jpg

◎译  名 芝加哥故事 第五季
◎片  名 The Chi Season 5
◎年  代 2022
◎产  地 美国
◎类  别 剧情
◎语  言 英语
◎上映日期 2022-06-26(美国)
◎IMDb评分 7.3/10 from 6416 users
◎IMDb链接 https://www.imdb.com/title/tt6294706/
◎豆瓣评分 0/10 from 0 users
◎豆瓣链接 https://douban.com/subject/35202367/
◎集  数 10
◎导  演 南希·C·梅加 Nancy C. Mejia
◎编  剧 丽娜·维特 Lena Waithe / 贾斯汀·希利安 Justin Hillian
◎主  演 雅各布·拉提摩尔 Jacob Latimore
                   艾利克斯·希伯特 Alex R. Hibbert
                   尤隆达·罗斯 Yolonda Ross
                   小沙蒙·布朗 Shamon Brown Jr
                   迈克·艾普斯 Mike Epps
                   Birgundi Baker Birgundi Baker
                   卢克·詹姆斯 Luke James
                   寇蒂斯·库克 Curtiss Cook
                   泰拉·阿伯克拉米 Tyla Abercrumbie
                   米丽亚姆·A·海曼 Miriam A. Hyman
                   Hannaha Hall Hannaha Hall
                   戴·戴维斯 Tai Davis
                   罗南多·博伊斯 Rolando Boyce
                   贾森·韦弗 Jason Weaver
                   史蒂文·威廉姆斯 Steven Williams


◎简  介

  Showtime宣布续订《芝加哥故事 The Chi》第四季。
Video
ID : 1
Format : HEVC
Format/Info : High Efficiency Video Coding
Format profile : Main 10@L5@Main
HDR format : Dolby Vision, Version 1.0, dvhe.05.06, BL+RPU
Codec ID : V_MPEGH/ISO/HEVC
Duration : 58 min 11 s
Bit rate : 14.6 Mb/s
Width : 3 840 pixels
Height : 2 160 pixels
Display aspect ratio : 16:9
Frame rate mode : Constant
Frame rate : 23.976 (24000/1001) FPS
Color space : YUV
Chroma subsampling : 4:2:0
Bit depth : 10 bits
Bits/(Pixel*Frame) : 0.073
Stream size : 5.93 GiB (96%)
Writing library : x265 3.4hy:[Linux][GCC 7.5.0][64 bit] 10bit
Encoding settings : cpuid=1111039 / frame-threads=6 / no-wpp / no-pmode / no-pme / no-psnr / no-ssim / log-level=2 / input-csp=1 / input-res=3840x2160 / interlace=0 / total-frames=0 / level-idc=0 / high-tier=1 / uhd-bd=0 / ref=4 / no-allow-non-conformance / repeat-headers / annexb / aud / hrd / info / hash=0 / no-temporal-layers / no-open-gop / min-keyint=48 / keyint=48 / gop-lookahead=0 / bframes=4 / b-adapt=2 / b-pyramid / bframe-bias=0 / rc-lookahead=48 / lookahead-slices=4 / scenecut=0 / hist-scenecut=0 / radl=0 / no-splice / no-intra-refresh / ctu=64 / min-cu-size=8 / rect / no-amp / max-tu-size=32 / tu-inter-depth=1 / tu-intra-depth=1 / limit-tu=0 / rdoq-level=2 / dynamic-rd=0.00 / no-ssim-rd / signhide / no-tskip / nr-intra=100 / nr-inter=400 / no-constrained-intra / strong-intra-smoothing / max-merge=3 / limit-refs=3 / limit-modes / me=3 / subme=3 / merange=57 / temporal-mvp / no-frame-dup / no-hme / weightp / no-weightb / no-analyze-src-pics / deblock=0:0 / sao / no-sao-non-deblock / rd=4 / selective-sao=4 / no-early-skip / rskip / no-fast-intra / no-tskip-fast / no-cu-lossless / no-b-intra / no-splitrd-skip / rdpenalty=0 / psy-rd=0.00 / psy-rdoq=1.00 / no-rd-refine / no-lossless / cbqpoffs=0 / crqpoffs=3 / rc=abr / bitrate=15000 / qcomp=0.60 / qpstep=4 / stats-write=0 / stats-read=2 / cplxblur=20.0 / qblur=0.5 / vbv-maxrate=18000 / vbv-bufsize=12000 / vbv-init=0.6 / vbv-end=0.6 / vbv-end-fr-adj=0.0 / ipratio=1.40 / pbratio=1.30 / aq-mode=2 / aq-strength=1.00 / cutree / zone-count=0 / no-strict-cbr / qg-size=32 / no-rc-grain / qpmax=69 / qpmin=0 / no-const-vbv / sar=1 / overscan=0 / videoformat=5 / range=1 / colorprim=2 / transfer=2 / colormatrix=2 / chromaloc=0 / display-window=0 / cll=0,0 / min-luma=0 / max-luma=1023 / log2-max-poc-lsb=8 / vui-timing-info / vui-hrd-info / no-concatenation / slices=1 / no-opt-qp-pps / no-opt-ref-list-length-pps / no-multi-pass-opt-rps / scenecut-bias=0.05 / hist-threshold=0.01 / no-opt-cu-delta-qp / no-aq-motion / no-hdr10 / no-hdr10-opt / no-dhdr10-opt / no-idr-recovery-sei / analysis-reuse-level=0 / analysis-save-reuse-level=0 / analysis-load-reuse-level=0 / scale-factor=0 / refine-intra=0 / refine-inter=0 / refine-mv=1 / refine-ctu-distortion=0 / no-limit-sao / ctu-info=0 / no-lowpass-dct / refine-analysis-type=0 / copy-pic=1 / max-ausize-factor=1.0 / no-dynamic-refine / no-single-sei / no-hevc-aq / no-svt / no-field / qp-adaptation-range=1.00 / no-scenecut-aware-qpconformance-window-offsets / right=0 / bottom=0 / decoder-max-rate=0
Default : Yes
Forced : No
Color range : Full

Audio
ID : 2
Format : E-AC-3
Format/Info : Enhanced AC-3
Commercial name : Dolby Digital Plus
Codec ID : A_EAC3
Duration : 58 min 30 s
Bit rate mode : Constant
Bit rate : 640 kb/s
Channel(s) : 6 channels
Channel layout : L R C LFE Ls Rs
Sampling rate : 48.0 kHz
Frame rate : 31.250 FPS (1536 SPF)
Compression mode : Lossy
Delay relative to video : 18 ms
Stream size : 268 MiB (4%)
Language : English
Service kind : Complete Main
Default : Yes
Forced : No

Text #1
ID : 3
Format : UTF-8
Codec ID : S_TEXT/UTF8
Codec ID/Info : UTF-8 Plain Text
Duration : 57 min 58 s
Bit rate : 75 b/s
Frame rate : 0.304 FPS
Count of elements : 1058
Stream size : 31.9 KiB (0%)
Language : English
Default : No
Forced : No

Text #2
ID : 4
Format : UTF-8
Codec ID : S_TEXT/UTF8
Codec ID/Info : UTF-8 Plain Text
Duration : 57 min 58 s
Bit rate : 79 b/s
Frame rate : 0.326 FPS
Count of elements : 1133
Stream size : 33.8 KiB (0%)
Title : SDH
Language : English
Default : No
Forced : No

Menu
00:00:00.000 : en:Chapter 1
00:58:20.000 : en:Credits

下载地址:

游客,如果您要查看本帖隐藏内容请回复

游客,如果您要查看本帖隐藏内容请回复

游客,如果您要查看本帖隐藏内容请回复

游客,如果您要查看本帖隐藏内容请回复







上一篇:过气万人迷 [简繁粤中字](2022)/第一季全/4K高清版本下载
下一篇:美国恐怖故事集(2022)第二季全/4K高清版本下载
回复

使用道具 举报

50

主题

1519

帖子

4361

积分

4K家园VIP

Rank: 9Rank: 9Rank: 9

积分
4361
发表于 2022-9-12 12:42:12 来自手机 | 显示全部楼层
路过
回复 支持 反对

使用道具 举报

0

主题

8668

帖子

2万

积分

4K家园VIP

Rank: 9Rank: 9Rank: 9

积分
20210
发表于 2022-9-12 12:46:11 | 显示全部楼层
太好啦&萬分感謝版主的無私發佈分享%
回复 支持 反对

使用道具 举报

0

主题

4

帖子

15

积分

新手上路

Rank: 1

积分
15
发表于 2022-9-12 21:21:55 | 显示全部楼层
版主辛苦了
回复 支持 反对

使用道具 举报

0

主题

8668

帖子

2万

积分

4K家园VIP

Rank: 9Rank: 9Rank: 9

积分
20210
发表于 2022-9-12 21:43:58 | 显示全部楼层
太好啦&萬分感謝版主的無私發佈分享%
回复 支持 反对

使用道具 举报

54

主题

1572

帖子

4490

积分

4K家园VIP

Rank: 9Rank: 9Rank: 9

积分
4490
发表于 2022-9-13 01:38:16 | 显示全部楼层
占坑编辑ing
回复 支持 反对

使用道具 举报

0

主题

1615

帖子

4429

积分

4K家园VIP

Rank: 9Rank: 9Rank: 9

积分
4429
发表于 2022-9-17 06:19:43 | 显示全部楼层
楼主呀,,,您太有才了。。。
回复 支持 反对

使用道具 举报

5

主题

1689

帖子

4645

积分

4K家园VIP

Rank: 9Rank: 9Rank: 9

积分
4645
发表于 2022-9-17 21:04:47 来自手机 | 显示全部楼层
回复 支持 反对

使用道具 举报

49

主题

1485

帖子

4281

积分

4K家园VIP

Rank: 9Rank: 9Rank: 9

积分
4281
发表于 2022-9-19 20:47:15 | 显示全部楼层
顶起顶起顶起
回复 支持 反对

使用道具 举报

您需要登录后才可以回帖 登录 | 立即注册

本版积分规则

精彩图文
Archiver|手机版|TAG|Sitemap|新帖|专题|联系我们:邮箱: 4kjia.com@gmail.com   

4k家园   ©2019