[4K电影] 破裂 / Breaking (2022) 4K高清版本下载

[复制链接]

2333

主题

2482

帖子

1万

积分

超级版主

Rank: 8Rank: 8

积分
17979
 楼主| 发表于 2022-9-17 08:39:27 | 显示全部楼层 |阅读模式
QQ图片20220913132506_副本.png

◎译  名 破裂/892
◎片  名 Breaking
◎年  代 2022
◎产  地 美国
◎类  别 剧情/惊悚/犯罪
◎语  言 英语
◎上映日期 2022-01-21(圣丹斯电影节)/2022-08-26(美国)
◎IMDb评分 6.4/10 from 1260 users
◎IMDb链接 https://www.imdb.com/title/tt12311620/
◎豆瓣评分 /10 from 0 users
◎豆瓣链接 https://movie.douban.com/subject/35410177/
◎导  演 阿比·达马里斯·柯宾 Abi Damaris Corbin
◎编  剧 阿比·达马里斯·柯宾 Abi Damaris Corbin
◎主  演 约翰·博耶加 John Boyega
       妮可·贝哈瑞 Nicole Beharie
       塞勒妮丝·雷瓦 Selenis Leyva
       迈克尔·肯尼斯·威廉姆斯 Michael Kenneth Williams
       康妮·布里登 Connie Britton
       杰弗里·多诺万 Jeffrey Donovan
       奥利维亚·华盛顿 Olivia Washington
       伦敦·卡温顿 London Covington
       罗伯·德林格尔 Robb Derringer
       卡迈因·吉欧凡纳佐 Carmine Giovinazzo
       凯特·伯顿 Kate Burton
       伊利斯·尼尔 Elise Neal
       梅尔·法尔 Mel Fair
       基思·埃威尔 Keith Ewell
       香农·沃尔什 Shannon Walsh
       Kimberly D'Armond Kimberly D'Armond
       丹·阿霍 Dan Aho
       Bourke Floyd Bourke Floyd
       米歇尔·伯纳德 Michelle Bernard
       安妮-玛丽·奥尔森 Anne-Marie Olsen

◎简  介

  饱受精神创伤的一名海军陆战队老兵正在努力恢复平民生活。

◎获奖情况

  第38届圣丹斯电影节(2022)
  评审团大奖 剧情片(提名)

Video
ID : 1
Format : HEVC
Format/Info : High Efficiency Video Coding
Format profile : Main 10@L5@High
Codec ID : V_MPEGH/ISO/HEVC
Duration : 1 h 43 min
Bit rate : 12.1 Mb/s
Width : 3 836 pixels
Height : 1 604 pixels
Display aspect ratio : 2.40:1
Frame rate mode : Constant
Frame rate : 23.976 FPS
Color space : YUV
Chroma subsampling : 4:2:0
Bit depth : 10 bits
Bits/(Pixel*Frame) : 0.082
Stream size : 8.71 GiB (94%)
Language : English
Default : Yes
Forced : No
Color range : Limited
Color primaries : BT.709
Transfer characteristics : BT.709
Matrix coefficients : BT.709

Audio
ID : 2
Format : E-AC-3 JOC
Format/Info : Enhanced AC-3 with Joint Object Coding
Commercial name : Dolby Digital Plus with Dolby Atmos
Codec ID : A_EAC3
Duration : 1 h 43 min
Bit rate mode : Constant
Bit rate : 768 kb/s
Channel(s) : 6 channels
Channel layout : L R C LFE Ls Rs
Sampling rate : 48.0 kHz
Frame rate : 31.250 FPS (1536 SPF)
Compression mode : Lossy
Stream size : 568 MiB (6%)
Language : English
Service kind : Complete Main
Default : Yes
Forced : No
Complexity index : 16
Number of dynamic objects : 15
Bed channel count : 1 channel
Bed channel configuration : LFE

Text #1
ID : 3
Format : UTF-8
Codec ID : S_TEXT/UTF8
Codec ID/Info : UTF-8 Plain Text
Duration : 1 h 36 min
Bit rate : 71 b/s
Frame rate : 0.246 FPS
Count of elements : 1419
Stream size : 50.5 KiB (0%)
Title : SDH
Language : English
Default : No
Forced : No

Text #2
ID : 4
Format : UTF-8
Codec ID : S_TEXT/UTF8
Codec ID/Info : UTF-8 Plain Text
Duration : 1 h 33 min
Bit rate : 67 b/s
Frame rate : 0.231 FPS
Count of elements : 1302
Stream size : 46.7 KiB (0%)
Language : English
Default : No
Forced : No

Text #3
ID : 5
Format : UTF-8
Codec ID : S_TEXT/UTF8
Codec ID/Info : UTF-8 Plain Text
Duration : 1 h 41 min
Bit rate : 53 b/s
Frame rate : 0.176 FPS
Count of elements : 1078
Stream size : 39.8 KiB (0%)
Title : Latin American
Language : Spanish
Default : No
Forced : No

Menu
00:00:00.000 : en:Chapter 01
00:07:04.341 : en:Chapter 02
00:15:42.484 : en:Chapter 03
00:24:55.995 : en:Chapter 04
00:35:15.115 : en:Chapter 05
00:44:38.261 : en:Chapter 06
00:56:43.486 : en:Chapter 07
01:07:18.788 : en:Chapter 08
01:18:02.891 : en:Chapter 09
01:27:35.422 : en:Chapter 10
01:37:17.253 : en:Chapter 11

资源速度为零或资源敏感被和谐时,推荐使用qBittorrent等下载软件,有条件的推荐115更好的下载软件!

下载地址:


游客,如果您要查看本帖隐藏内容请回复







上一篇:最终测试 / The Class (2022) 4K高清版本下载
下一篇:三千年的思念 (2022) 4K高清版本下载
回复

使用道具 举报

1

主题

1400

帖子

4030

积分

4K家园VIP

Rank: 9Rank: 9Rank: 9

积分
4030
发表于 2022-9-17 08:39:31 来自手机 | 显示全部楼层
秀起来~
回复 支持 反对

使用道具 举报

0

主题

1408

帖子

4086

积分

4K家园VIP

Rank: 9Rank: 9Rank: 9

积分
4086
发表于 2022-9-17 08:39:32 来自手机 | 显示全部楼层
1v1飘过
回复 支持 反对

使用道具 举报

1

主题

1356

帖子

4084

积分

4K家园VIP

Rank: 9Rank: 9Rank: 9

积分
4084
发表于 2022-9-17 08:39:32 | 显示全部楼层
感谢楼主发帖,前排顶起
回复 支持 反对

使用道具 举报

2

主题

1681

帖子

4683

积分

4K家园VIP

Rank: 9Rank: 9Rank: 9

积分
4683
发表于 2022-9-17 08:54:29 | 显示全部楼层
广告位,,坐下看看
回复 支持 反对

使用道具 举报

56

主题

1560

帖子

4564

积分

4K家园VIP

Rank: 9Rank: 9Rank: 9

积分
4564
发表于 2022-9-17 09:24:00 来自手机 | 显示全部楼层
感谢分享
回复 支持 反对

使用道具 举报

0

主题

2

帖子

16

积分

新手上路

Rank: 1

积分
16
发表于 2022-9-17 13:24:23 | 显示全部楼层
都是非师范生
回复 支持 反对

使用道具 举报

0

主题

1

帖子

6

积分

新手上路

Rank: 1

积分
6
发表于 2022-9-17 23:17:11 | 显示全部楼层
回复

使用道具 举报

0

主题

1

帖子

10

积分

新手上路

Rank: 1

积分
10
发表于 2022-9-20 19:07:00 | 显示全部楼层
nice,感谢楼主分享
回复 支持 反对

使用道具 举报

0

主题

1

帖子

6

积分

新手上路

Rank: 1

积分
6
发表于 2022-9-22 18:01:01 来自手机 | 显示全部楼层
感谢楼主发布
回复 支持 反对

使用道具 举报

您需要登录后才可以回帖 登录 | 立即注册

本版积分规则

精彩图文
Archiver|手机版|TAG|Sitemap|新帖|专题|联系我们:邮箱: 4kjia.com@gmail.com   

4k家园   ©2019