[4K电影] 三千年的思念 (2022) 4K高清版本下载

[复制链接]

2327

主题

2476

帖子

1万

积分

超级版主

Rank: 8Rank: 8

积分
17940
 楼主| 发表于 2022-9-17 08:43:58 | 显示全部楼层 |阅读模式
QQ图片20220913132002_副本.png

◎译  名 三千年的思念/3000 Years of Longing/三千年的渴望(台)
◎片  名 Three Thousand Years of Longing
◎年  代 2022
◎产  地 澳大利亚/美国
◎类  别 剧情/爱情/奇幻
◎语  言 英语
◎上映日期 2022-05-20(戛纳电影节)/2022-08-26(美国)
◎IMDb评分 6.9/10 from 9998 users
◎IMDb链接 https://www.imdb.com/title/tt9198364/
◎豆瓣评分 6.6/10 from 1026 users
◎豆瓣链接 https://movie.douban.com/subject/30362175/
◎导  演 乔治·米勒 George Miller
◎编  剧 乔治·米勒 George Miller / 安东尼娅·苏珊·拜厄特 A.S. Byatt / 奥古斯塔·戈尔 Augusta Gore
◎主  演 蒂尔达·斯文顿 Tilda Swinton
       伊德里斯·艾尔巴 Idris Elba
       卡恩·古尔杜尔 Kaan Guldur
       艾莉拉·布朗 Alyla Browne
       尼古拉斯·穆瓦德 Nicolas Mouawad
       戴维·科林斯 David Collins
       安吉·特里克 Angie Tricker
       杰森·贾戈 Jason Jago
       海莉·吉亚·休斯 Hayley Gia Hughes
       伯克·奥兹图克 Berk Ozturk
       艾登·麦肯齐 Aiden Mckenzie
       沙克里亚·塔里亚瓦特 Shakriya Tarinyawat
       阿斯卡·卡雷姆 Aska Karem
       詹姆斯·杜宾斯·琼斯 James Dobbins Jones
       杰克·布兰迪 Jack Braddy
       安娜·亚当斯 Anna Adams
       约翰·帕克里奇-韦布 John Puckeridge-Webb
       雨果·维拉 Hugo Vella
       阿梅利亚·帕托马基 Amelia Patomaki
       萨拉·豪伯特 Sarah Houbolt
       兰道夫·菲尔兹 Randolph Fields
       皮娅·桑德波特 Pia Thunderbolt
       卡勒姆·莫兰 Callum Moran


◎简  介


  Alithea Binnie虽然对生活还算满意,但对世界却抱着怀疑的态度。
  在伊斯坦布尔,她遇到了一个精灵,后者向她提议用自由换取实现三个愿望。
  但Alithea学识非常渊博,她知道与许愿有关的故事都没有好结局。精灵于是向她解释了这么做的原因,并讲述了自己辉煌的过往。
  她被精灵讲述的故事所吸引,最终许下一个最令人惊讶的愿望。

Video
ID : 1
Format : HEVC
Format/Info : High Efficiency Video Coding
Format profile : Main 10@L5@High
HDR format : SMPTE ST 2086, HDR10 compatible
Codec ID : V_MPEGH/ISO/HEVC
Duration : 1 h 48 min
Bit rate : 14.4 Mb/s
Width : 3 840 pixels
Height : 1 602 pixels
Display aspect ratio : 2.40:1
Frame rate mode : Constant
Frame rate : 23.976 FPS
Color space : YUV
Chroma subsampling : 4:2:0 (Type 2)
Bit depth : 10 bits
Bits/(Pixel*Frame) : 0.097
Stream size : 10.9 GiB (97%)
Language : English
Default : Yes
Forced : No
Color range : Limited
Color primaries : BT.2020
Transfer characteristics : PQ
Matrix coefficients : BT.2020 non-constant
Mastering display color primaries : BT.2020
Mastering display luminance : min: 0.0050 cd/m2, max: 1000 cd/m2
Maximum Content Light Level : 3264 cd/m2
Maximum Frame-Average Light Level : 675 cd/m2

Audio
ID : 2
Format : AC-3
Format/Info : Audio Coding 3
Commercial name : Dolby Digital
Codec ID : A_AC3
Duration : 1 h 48 min
Bit rate mode : Constant
Bit rate : 384 kb/s
Channel(s) : 6 channels
Channel layout : L R C LFE Ls Rs
Sampling rate : 48.0 kHz
Frame rate : 31.250 FPS (1536 SPF)
Compression mode : Lossy
Stream size : 298 MiB (3%)
Language : English
Service kind : Complete Main
Default : Yes
Forced : No

Text #1
ID : 3
Format : UTF-8
Codec ID : S_TEXT/UTF8
Codec ID/Info : UTF-8 Plain Text
Duration : 1 h 44 min
Bit rate : 62 b/s
Frame rate : 0.243 FPS
Count of elements : 1526
Stream size : 48.2 KiB (0%)
Title : SDH
Language : English
Default : No
Forced : No

Text #2
ID : 4
Format : UTF-8
Codec ID : S_TEXT/UTF8
Codec ID/Info : UTF-8 Plain Text
Duration : 1 h 39 min
Bit rate : 55 b/s
Frame rate : 0.209 FPS
Count of elements : 1245
Stream size : 40.5 KiB (0%)
Language : English
Default : No
Forced : No

Text #3
ID : 5
Format : UTF-8
Codec ID : S_TEXT/UTF8
Codec ID/Info : UTF-8 Plain Text
Duration : 57 min 10 s
Bit rate : 4 b/s
Frame rate : 0.027 FPS
Count of elements : 92
Stream size : 1.82 KiB (0%)
Title : Forced
Language : English
Default : Yes
Forced : Yes

Text #4
ID : 6
Format : UTF-8
Codec ID : S_TEXT/UTF8
Codec ID/Info : UTF-8 Plain Text
Duration : 1 h 39 min
Bit rate : 70 b/s
Frame rate : 0.243 FPS
Count of elements : 1452
Stream size : 51.6 KiB (0%)
Title : Canadian
Language : French
Default : No
Forced : No

Menu
00:00:00.000 : en:Chapter 1
00:08:25.296 : en:Chapter 2
00:19:18.199 : en:Chapter 3
00:29:17.966 : en:Chapter 4
00:37:59.904 : en:Chapter 5
00:47:59.754 : en:Chapter 6
00:57:26.988 : en:Chapter 7
01:09:26.875 : en:Chapter 8
01:17:55.842 : en:Chapter 9
01:26:46.039 : en:Chapter 10
01:40:54.012 : en:Chapter 11


资源速度为零或资源敏感被和谐时,推荐使用qBittorrent等下载软件,有条件的推荐115更好的下载软件!

下载地址:


游客,如果您要查看本帖隐藏内容请回复

游客,如果您要查看本帖隐藏内容请回复

游客,如果您要查看本帖隐藏内容请回复

游客,如果您要查看本帖隐藏内容请回复





上一篇:破裂 / Breaking (2022) 4K高清版本下载
下一篇:华尔街[简粤中字] / Wall Street (1987) 4K高清版本下载
回复

使用道具 举报

2

主题

1404

帖子

4236

积分

4K家园VIP

Rank: 9Rank: 9Rank: 9

积分
4236
发表于 2022-9-17 08:44:03 来自手机 | 显示全部楼层
占坑编辑ing
回复 支持 反对

使用道具 举报

51

主题

1420

帖子

4092

积分

4K家园VIP

Rank: 9Rank: 9Rank: 9

积分
4092
发表于 2022-9-17 08:44:03 来自手机 | 显示全部楼层
路过
回复 支持 反对

使用道具 举报

0

主题

28

帖子

180

积分

新手上路

Rank: 1

积分
180
发表于 2022-9-17 09:26:18 | 显示全部楼层
好神奇的电影!!!!!!!
回复 支持 反对

使用道具 举报

0

主题

8663

帖子

2万

积分

4K家园VIP

Rank: 9Rank: 9Rank: 9

积分
20189
发表于 2022-9-17 11:31:09 | 显示全部楼层
太好啦&萬分感謝版主的無私發佈分享%
回复 支持 反对

使用道具 举报

0

主题

1

帖子

6

积分

新手上路

Rank: 1

积分
6
发表于 2022-9-17 15:22:15 | 显示全部楼层
马克
回复

使用道具 举报

0

主题

3

帖子

32

积分

新手上路

Rank: 1

积分
32
发表于 2022-9-22 01:13:54 | 显示全部楼层
谢谢分享
回复

使用道具 举报

47

主题

1491

帖子

4267

积分

4K家园VIP

Rank: 9Rank: 9Rank: 9

积分
4267
发表于 昨天 05:51 | 显示全部楼层
4K应该不错,我也下个看看
回复 支持 反对

使用道具 举报

您需要登录后才可以回帖 登录 | 立即注册

本版积分规则

精彩图文
Archiver|手机版|TAG|Sitemap|新帖|专题|联系我们:邮箱: 4kjia.com@gmail.com   

4k家园   ©2019