[4K电影] 罪犯艾米丽 / Emily the Criminal (2022) 4K高清版本下载

[复制链接]

2327

主题

2476

帖子

1万

积分

超级版主

Rank: 8Rank: 8

积分
17940
 楼主| 发表于 2022-9-17 09:48:57 | 显示全部楼层 |阅读模式
QQ图片20220917094446_副本.png

◎译  名 罪犯艾米丽
◎片  名 Emily the Criminal
◎年  代 2022
◎产  地 美国
◎类  别 剧情/惊悚/犯罪
◎语  言 英语
◎上映日期 2022-01-24(圣丹斯电影节)/2022-06-08(澳大利亚悉尼电影节)/2022-08-12(美国)
◎IMDb评分 6.8/10 from 4454 users
◎IMDb链接 https://www.imdb.com/title/tt15255876/
◎豆瓣评分 6.4/10 from 305 users
◎豆瓣链接 https://movie.douban.com/subject/35694784/
◎导  演 约翰·巴顿·福特 John Patton Ford
◎编  剧 约翰·巴顿·福特 John Patton Ford
◎主  演 奥布瑞·普拉扎 Aubrey Plaza
          西奥·罗西 Theo Rossi
       乔纳森阿维多瑞 Jonathan Avigdori
       贝尔纳多·巴迪罗 Bernardo Badillo
       吉娜·格申 Gina Gershon
       梅歌林·艾奇坤沃克 Megalyn Echikunwoke
       约翰·比灵斯列 John Billingsley
       约翰·波西 John Posey
       克雷格·斯塔克 Craig Stark
       罗曼·米蒂齐扬 Roman Mitichyan
       杰克·托帕利安 Jack Topalian
       维克托·沃尔夫 Victor Wolf
       托马斯·派斯 Tomas Pais
       Janice Sonia Lee Janice Sonia Lee
       卫斯理·韩 Wesley Han

◎简  介

  该片讲述了艾米莉在负债累累后卷入信用卡骗局的故事,是什么把她拉进了洛杉矶的犯罪和致命的黑社会。

Video
ID : 1
Format : HEVC
Format/Info : High Efficiency Video Coding
Format profile : Main 10@L5@High
Codec ID : V_MPEGH/ISO/HEVC
Duration : 1 h 36 min
Bit rate : 20.7 Mb/s
Width : 3 832 pixels
Height : 1 600 pixels
Display aspect ratio : 2.40:1
Frame rate mode : Constant
Frame rate : 23.976 FPS
Color space : YUV
Chroma subsampling : 4:2:0
Bit depth : 10 bits
Bits/(Pixel*Frame) : 0.141
Stream size : 14.0 GiB (97%)
Default : Yes
Forced : No
Color range : Limited
Color primaries : BT.709
Transfer characteristics : BT.709
Matrix coefficients : BT.709

Audio
ID : 2
Format : E-AC-3
Format/Info : Enhanced AC-3
Commercial name : Dolby Digital Plus
Codec ID : A_EAC3
Duration : 1 h 36 min
Bit rate mode : Constant
Bit rate : 640 kb/s
Channel(s) : 6 channels
Channel layout : L R C LFE Ls Rs
Sampling rate : 48.0 kHz
Frame rate : 31.250 FPS (1536 SPF)
Compression mode : Lossy
Delay relative to video : 336 ms
Stream size : 443 MiB (3%)
Language : English
Service kind : Complete Main
Default : Yes
Forced : No

Text #1
ID : 3
Format : UTF-8
Codec ID : S_TEXT/UTF8
Codec ID/Info : UTF-8 Plain Text
Duration : 1 h 27 min
Bit rate : 46 b/s
Frame rate : 0.223 FPS
Count of elements : 1173
Stream size : 30.0 KiB (0%)
Language : English
Default : No
Forced : No

Text #2
ID : 4
Format : UTF-8
Codec ID : S_TEXT/UTF8
Codec ID/Info : UTF-8 Plain Text
Duration : 1 h 35 min
Bit rate : 49 b/s
Frame rate : 0.241 FPS
Count of elements : 1380
Stream size : 35.0 KiB (0%)
Title : SDH
Language : English
Default : No
Forced : No

Text #3
ID : 5
Format : UTF-8
Codec ID : S_TEXT/UTF8
Codec ID/Info : UTF-8 Plain Text
Duration : 1 h 30 min
Bit rate : 37 b/s
Frame rate : 0.174 FPS
Count of elements : 944
Stream size : 24.9 KiB (0%)
Language : French
Default : No
Forced : No

资源速度为零或资源敏感被和谐时,推荐使用qBittorrent等下载软件,有条件的推荐115更好的下载软件!

下载地址:


游客,如果您要查看本帖隐藏内容请回复






上一篇:华尔街[简粤中字] / Wall Street (1987) 4K高清版本下载
下一篇:复生 / Resurrection (2022) 4K高清版本下载
回复

使用道具 举报

5

主题

1706

帖子

4724

积分

4K家园VIP

Rank: 9Rank: 9Rank: 9

积分
4724
发表于 2022-9-17 09:49:02 | 显示全部楼层
楼猪V5啊
回复 支持 反对

使用道具 举报

0

主题

6

帖子

54

积分

新手上路

Rank: 1

积分
54
发表于 2022-9-19 11:28:10 | 显示全部楼层
感謝樓主分享
回复 支持 反对

使用道具 举报

0

主题

55

帖子

780

积分

新手上路

Rank: 1

积分
780
发表于 2022-9-25 03:18:29 | 显示全部楼层
看禁闻http://v.ht/tttd 点击访问
回复

使用道具 举报

您需要登录后才可以回帖 登录 | 立即注册

本版积分规则

精彩图文
Archiver|手机版|TAG|Sitemap|新帖|专题|联系我们:邮箱: 4kjia.com@gmail.com   

4k家园   ©2019