[4K电影] 复生 / Resurrection (2022) 4K高清版本下载

[复制链接]

2327

主题

2476

帖子

1万

积分

超级版主

Rank: 8Rank: 8

积分
17940
 楼主| 发表于 2022-9-17 09:49:49 | 显示全部楼层 |阅读模式

QQ图片20220917094529_副本.png

◎标  题 复生
◎译  名 复兴
◎片  名 Resurrection
◎年  代 2022
◎产  地 美国
◎类  别 剧情 / 悬疑 / 惊悚 / 恐怖 / 犯罪
◎语  言 英语
◎上映日期 2022-01-22(圣丹斯电影节) / 2022-08-05(美国)
◎IMDb评分 5.9/10 from 3627 users
◎IMDb链接 https://www.imdb.com/title/tt11540726/
◎豆瓣评分 5.3/10 from 363 users
◎豆瓣链接 https://movie.douban.com/subject/35694779/
◎片  长 103分钟
◎导  演 安德鲁·山姆斯 Andrew Semans
◎编  剧 安德鲁·山姆斯 Andrew Semans
◎演  员 丽贝卡·豪尔 Rebecca Hall
       蒂姆·罗斯 Tim Roth
       格蕾丝·考夫曼 Grace Kaufman
       迈克尔·埃斯佩尔 Michael Esper
       Josh Drennen Josh Drennen
       罗丝玛丽·霍华德 Rosemary Howard
       帕特里克·克莱因 Patrick Klein

◎简  介

  讲述玛格丽特(豪尔)过着成功而有序的生活,完美地平衡了她繁忙的事业和作为单身母亲对极度独立的女儿艾比的照顾。直到大卫(罗斯)出现,她的过去开始困扰她,精心计划的生活发生了更黑暗的转变,玛格丽特不得不直面她逃避了20年的怪物,来终结他们之间的恩怨。

Video
ID : 1
Format : HEVC
Format/Info : High Efficiency Video Coding
Format profile : Main 10@L5@High
Codec ID : V_MPEGH/ISO/HEVC
Duration : 1 h 44 min
Bit rate : 20.8 Mb/s
Width : 3 592 pixels
Height : 2 156 pixels
Display aspect ratio : 5:3
Frame rate mode : Constant
Frame rate : 23.976 FPS
Color space : YUV
Chroma subsampling : 4:2:0
Bit depth : 10 bits
Bits/(Pixel*Frame) : 0.112
Stream size : 15.1 GiB (97%)
Default : Yes
Forced : No
Color range : Limited
Color primaries : BT.709
Transfer characteristics : BT.709
Matrix coefficients : BT.709

Audio
ID : 2
Format : E-AC-3
Format/Info : Enhanced AC-3
Commercial name : Dolby Digital Plus
Codec ID : A_EAC3
Duration : 1 h 44 min
Bit rate mode : Constant
Bit rate : 640 kb/s
Channel(s) : 6 channels
Channel layout : L R C LFE Ls Rs
Sampling rate : 48.0 kHz
Frame rate : 31.250 FPS (1536 SPF)
Compression mode : Lossy
Stream size : 477 MiB (3%)
Language : English
Service kind : Complete Main
Default : Yes
Forced : No

Text #1
ID : 3
Format : UTF-8
Codec ID : S_TEXT/UTF8
Codec ID/Info : UTF-8 Plain Text
Duration : 1 h 41 min
Bit rate : 44 b/s
Frame rate : 0.221 FPS
Count of elements : 1350
Stream size : 33.4 KiB (0%)
Language : English
Default : Yes
Forced : No

Text #2
ID : 4
Format : UTF-8
Codec ID : S_TEXT/UTF8
Codec ID/Info : UTF-8 Plain Text
Duration : 1 h 41 min
Bit rate : 48 b/s
Frame rate : 0.239 FPS
Count of elements : 1460
Stream size : 36.4 KiB (0%)
Title : SDH
Language : English
Default : No
Forced : No

Menu
00:00:00.000 : en:Chapter 01
00:10:29.629 : en:Chapter 02
00:20:53.795 : en:Chapter 03
00:32:02.339 : en:Chapter 04
00:45:14.881 : en:Chapter 05
00:52:20.557 : en:Chapter 06
01:04:10.558 : en:Chapter 07
01:13:34.831 : en:Chapter 08
01:21:43.903 : en:Chapter 09
01:39:49.072 : en:Chapter 10


资源速度为零或资源敏感被和谐时,推荐使用qBittorrent等下载软件,有条件的推荐115更好的下载软件!

下载地址:


游客,如果您要查看本帖隐藏内容请回复





上一篇:罪犯艾米丽 / Emily the Criminal (2022) 4K高清版本下载
下一篇:天师斗僵尸[繁体中字] / Fright Night (1985) 4K高清版本下载
回复

使用道具 举报

62

主题

1511

帖子

4413

积分

4K家园VIP

Rank: 9Rank: 9Rank: 9

积分
4413
发表于 2022-9-17 09:49:54 | 显示全部楼层
正需要
回复 支持 反对

使用道具 举报

0

主题

475

帖子

2895

积分

注册会员

Rank: 2

积分
2895
发表于 2022-9-17 11:42:30 | 显示全部楼层
谢谢楼主分享
回复 支持 反对

使用道具 举报

2

主题

1320

帖子

3978

积分

4K家园VIP

Rank: 9Rank: 9Rank: 9

积分
3978
发表于 2022-9-23 17:11:51 | 显示全部楼层
占坑编辑ing
回复 支持 反对

使用道具 举报

40

主题

1520

帖子

4372

积分

4K家园VIP

Rank: 9Rank: 9Rank: 9

积分
4372
发表于 2022-9-24 16:43:21 | 显示全部楼层
无论是不是沙发都得回复下
回复 支持 反对

使用道具 举报

2

主题

1191

帖子

3593

积分

4K家园VIP

Rank: 9Rank: 9Rank: 9

积分
3593
发表于 4 天前 | 显示全部楼层
试试先,好用再说
回复 支持 反对

使用道具 举报

您需要登录后才可以回帖 登录 | 立即注册

本版积分规则

精彩图文
Archiver|手机版|TAG|Sitemap|新帖|专题|联系我们:邮箱: 4kjia.com@gmail.com   

4k家园   ©2019